вход на сайт

Имя пользователя :
Пароль :

Восстановление пароля Регистрация
Безумные мелодии: Дорожный бегун и койот / Looney Tunes: Road Runner & Coyote Theatrical cartoons / 3 серии из 3 (Мэттью ОКаллаган, короткометражка, мультфильм, 2010) [BDRip 720p, Не требуется]
Рейтинг:
(голосов: 1)



[img]{THEME}/images/logopost.png[/img]



Безумные мелодии: Дорожный бегун и койот | Looney Tunes: Road Runner & Coyote Theatrical cartoons

Год выпуска: 2010
Страна: США
Производство: animated short film
Жанр: мультфильм, короткометражка

Режиссёр: Мэттью ОКаллаган
В ролях:

Перевод: Не требуется
Субтитры: отсутствуют

Описание:Ощущение свободы в обширной пустыне, только добавляет Койоту отчаяния. На сей раз, он решил использовать арсенал современных устройств, его ничто не остановит.
Он уже готовит новый коварный план, который принимает во внимание всё... ну почти всё...

Рейтинги отсутствуют

Качество:BDRip 720p | BDRemux
Продолжительность: 00:03:00 + 00:03:04 + 00:03:07 мин.

Формат: MKV
Видео кодек: AVC
Аудио кодек: AC3
Видео: Advanced Video Codec, 1280x532 (2.41:1), 23,976 fps, ~3 800 kbps avg, 0.233 bit/pixel
Аудио: 48.0 kHz, 3/2 (L,C,R,l,r) + LFE ch, ~640 (~448) kbps avg

MediaInfo ▼Общее
Уникальный идентификатор : 241318567597832696184078159716055385365 (0xB58C43FAE8EA77419F9949929A1A0515)
Полное имя : C:Безумные мелодии Дорожный бегун и койотLooney Tunes. Road Runner & Coyote Theatrical cartoons.2010.BDRip 720pLooney Tunes.Coyote Falls.2010.BDRip 720p.mkv
Формат : Matroska
Версия формата : Version 2
Размер файла : 95,3 Мбайт
Продолжительность : 3 м. 0 с.
Общий поток : 4434 Кбит/сек
Дата кодирования : UTC 2012-06-30 06:30:32
Программа кодирования : mkvmerge v5.5.0 (Healer) built on Apr 24 2012 23:47:03
Библиотека кодирования : libebml v1.2.3 + libmatroska v1.3.0
Видео
Идентификатор : 1
Формат : AVC
Формат/Информация : Advanced Video Codec
Профиль формата :
Параметр CABAC формата : Да
Параметр ReFrames формата : 8 кадров
Идентификатор кодека : V_MPEG4/ISO/AVC
Продолжительность : 3 м. 0 с.
Битрейт : 3800 Кбит/сек
Ширина : 1280 пикселей
Высота : 532 пикселя
Соотношение сторон : 2,40:1
Частота кадров : 23,976 кадра/сек
Цветовое пространство : YUV
Субдискретизация насыщенности : 4:2:0
Битовая глубина : 8 бит
Тип развёртки : Прогрессивная
Бит/(Пиксели*Кадры) : 0.233
Размер потока : 79,6 Мбайт (84%)
Библиотека кодирования : x264 core 119 r2106 07efeb4
Настройки программы : cabac=1 / ref=8 / deblock=1:-1:-1 / analyse=0x3:0x133 / me=umh / subme=9 / psy=1 / psy_rd=0.40:0.00 / mixed_ref=0 / me_range=16 / chroma_me=1 / trellis=2 / 8x8dct=1 / cqm=0 / deadzone=21,11 / fast_pskip=0 / chroma_qp_offset=-2 / threads=3 / sliced_threads=0 / nr=0 / decimate=1 / interlaced=0 / bluray_compat=0 / constrained_intra=0 / bframes=8 / b_pyramid=2 / b_adapt=2 / b_bias=0 / direct=3 / weightb=1 / open_gop=0 / weightp=2 / keyint=240 / keyint_min=25 / scenecut=40 / intra_refresh=0 / rc_lookahead=240 / rc=2pass / mbtree=1 / bitrate=3800 / ratetol=1.0 / qcomp=0.60 / qpmin=10 / qpmax=69 / qpstep=4 / cplxblur=20.0 / qblur=0.5 / ip_ratio=2.20 / aq=1:0.60
Default : Да
Forced : Нет
Аудио
Идентификатор : 2
Формат : AC-3
Формат/Информация : Audio Coding 3
Расширение режима : CM (complete main)
Параметр Endianness формата : Big
Идентификатор кодека : A_AC3
Продолжительность : 3 м. 0 с.
Вид битрейта : Постоянный
Битрейт : 640 Кбит/сек
Каналы : 6 каналов
Расположение каналов : Front: L C R, Side: L R, LFE
Частота : 48,0 КГц
Битовая глубина : 16 бит
Метод сжатия : С потерями
Размер потока : 13,8 Мбайт (14%)
Язык : English
Default : Да
Forced : Нет


4bd6335400a471de850efe4f40bb37900d62f12fБезумные мелодии: Дорожный бегун и койот / Looney Tunes: Road Runner & Coyote Theatrical cartoons / 3 серии из 3 (Мэттью ОКаллаган, короткометражка, мультфильм, 2010) [BDRip 720p, Не требуется] Безумные мелодии: Дорожный бегун и койот / Looney Tunes: Road Runner & Coyote Theatrical cartoons / 3 серии из 3 (Мэттью ОКаллаган, короткометражка, мультфильм, 2010) [BDRip 720p, Не требуется] " />

Аплоадер: Админ, дата: 6-08-2012, 17:55, торрент скачан: 359 раз

Понравилась раздача? Посмотрите эти:
  • Подглядывающий на кухне / Kick the Cock (Тинто Брасс, Эротика, короткометра ...
  • Va-банк / Runner Runner (Брэд Фурман, триллер, драма, криминал, 2013) [BDRi ...
  • Va-банк / Runner Runner (Брэд Фурман, триллер, драма, криминал, 2013) [BDRi ...
  • Гадкий я 2 / Despicable Me 2 (Пьер Соффин, Крис Рено, мультфильм, фантастик ...
  • Война миров Z / World War Z [Theatrical Cut] (Марк Форстер, ужасы, фантасти ...
  • Больше чем мёд / More Than Honey (документальный, 2012) [BDRip 720p, Профес ...
  • Поймай толстуху, если сможешь / Identity Thief [Theatrical Cut] (Сет Гордон ...
  • Поймай толстуху, если сможешь [Театральная версия] / Identity Thief [Theatr ...
  • Толстяк на ринге / Here Comes the Boom (Фрэнк Корачи, Боевик, комедия, 2012 ...
  • Падения койота / Coyote Falls (Мэттью ОКаллаган, Короткометражная анимация, ...
  • Безумные мелодии: Дорожный бегун и койот / Looney Tunes: Road Runner & Coyo ...
  • Кролик Багз или Дорожный бегун / The Bugs Bunny / Road Runner Movie (Чак Дж ...
  • Белка: Не время для орехов / Scrat: No Time for Nuts (Крис Рено, Майк Труме ...
  • Сид, инструкция по выживанию / Surviving Sid (Гален Т. Чу / Galen T. Chu, К ...
  • Безумные мелодии: Кажется я видел котика / Looney Tunes: I Tawt I Taw а Pud ...
  • Скрат: Потерянный орех / Scrat: Gone Nutty (Карлос Салдана, короткометражка ...
  • [3D] Безумные мелодии / Looney Tunes (Мэттью О’Каллаган / Matthew OCallagha ...
  • [3D] Безумные мелодии: Падение койота / Looney Tunes: Coyote Falls (Мэттью ...
  • [3D] Безумные мелодии: Бешеный гонщик / Looney Tunes: Rabid Rider (Мэттью ...
  • [3D] Безумные мелодии: Летающие меха / Looney Tunes: Fur of Flying (Мэттью ...
  • Маугли (Роман Давыдов, мультфильм, приключения, семейный, 1973) [BDRip 720p ...
  • История игрушек: Гавайские каникулы / Toy Story: Hawaiian Vacation (Гари ...
  • Лоракс: Серенада / The Lorax: Serenade (Кайл Балда, мультфильм, комедия, му ...
  • Большой отрыв БОБа / B.O.B.s Big Break (Роберт Портер, короткометражка, ан ...
  • Миньоны / Minions (Пьер Коффин, Крис Рено, короткометражка, анимация, мульт ...
  • Информация
    Посетители, находящиеся в группе Гости, не могут оставлять комментарии к данной публикации.