вход на сайт

Имя пользователя :
Пароль :

Восстановление пароля Регистрация
Безумные мелодии: Кажется я видел котика / Looney Tunes: I Tawt I Taw а Puddy Tat (Мэттью ОКаллаган, Короткометражка, анимация, мультфильм, 2011г) [BDRip 720p, DUB + Original + Sub]
Рейтинг:
(голосов: 1)



[img]{THEME}/images/logopost.png[/img]



Безумные мелодии: Кажется я видел котика | Looney Tunes: I Tawt I Taw а Puddy Tat

Год выпуска: 2011
Страна: США
Производство: animated short film
Жанр: мультфильм, короткометражка

Режиссёр: Мэттью ОКаллаган | Matthew OCallaghan
В ролях: Sylvester : Tweety - Мэл Бланк : Mel Blanc, Granny - Джун Форэй : June Foray

Перевод: 1 - Профессиональный (дублированный)
2 - Оригинал (Английский)
Субтитры: русские

Описание:Новые забавные приключения кота Сильвестра и канарейки Твити.
Качество: BDRip 720p | BDRemux
Продолжительность: 00:03:49 мин.

Формат: MKV
Видео кодек: AVC
Аудио кодек: AC3 : DTS
Видео: 1280x532 (2,40:1), 23,976 fps, ~3 726 kbps avg, 0.228 bit/pixel
Аудио #1: 48.0 kHz, AC3, 6ch, 640 kbps avg (RUS)
Аудио #2: 48 kHz, DTS, 6ch, ~1510 kbps (ENG)
MediaInfo ▼Общее
Уникальный идентификатор : 187607946882169204918093405867631067635 (0x8D23F9ECDDB099F9807BCDC9092E41F3)
Полное имя : F:Кажется я видел котикаI Tawt I Taw a Puddy Tat.2011.BDRip 720p.DUB+ENG+Sub_track1_und.mkv
Формат : Matroska
Версия формата : Version 2
Размер файла : 164 Мбайт
Продолжительность : 3 м. 49 с.
Общий поток : 5995 Кбит/сек
Дата кодирования : UTC 2012-06-29 21:41:02
Программа кодирования : mkvmerge v5.5.0 (Healer) built on Apr 24 2012 23:47:03
Библиотека кодирования : libebml v1.2.3 + libmatroska v1.3.0
Видео
Идентификатор : 1
Формат : AVC
Формат/Информация : Advanced Video Codec
Профиль формата : [email protected]
Параметр CABAC формата : Да
Параметр ReFrames формата : 8 кадров
Идентификатор кодека : V_MPEG4/ISO/AVC
Продолжительность : 3 м. 49 с.
Битрейт : 3726 Кбит/сек
Ширина : 1280 пикселей
Высота : 532 пикселя
Соотношение сторон : 2,40:1
Частота кадров : 23,976 кадра/сек
Цветовое пространство : YUV
Субдискретизация насыщенности : 4:2:0
Битовая глубина : 8 бит
Тип развёртки : Прогрессивная
Бит/(Пиксели*Кадры) : 0.228
Размер потока : 102 Мбайт (62%)
Библиотека кодирования : x264 core 119 r2106 07efeb4
Настройки программы : cabac=1 / ref=8 / deblock=1:-1:-1 / analyse=0x3:0x133 / me=umh / subme=9 / psy=1 / psy_rd=0.40:0.00 / mixed_ref=0 / me_range=16 / chroma_me=1 / trellis=2 / 8x8dct=1 / cqm=0 / deadzone=21,11 / fast_pskip=0 / chroma_qp_offset=-2 / threads=3 / sliced_threads=0 / nr=0 / decimate=1 / interlaced=0 / bluray_compat=0 / constrained_intra=0 / bframes=8 / b_pyramid=2 / b_adapt=2 / b_bias=0 / direct=1 / weightb=1 / open_gop=0 / weightp=2 / keyint=240 / keyint_min=25 / scenecut=40 / intra_refresh=0 / rc_lookahead=220 / rc=crf / mbtree=1 / crf=16.0 / qcomp=0.60 / qpmin=10 / qpmax=69 / qpstep=4 / ip_ratio=2.20 / aq=1:0.60
Default : Да
Forced : Нет
Аудио #1
Идентификатор : 2
Формат : AC-3
Формат/Информация : Audio Coding 3
Расширение режима : CM (complete main)
Идентификатор кодека : A_AC3
Продолжительность : 3 м. 49 с.
Вид битрейта : Постоянный
Битрейт : 640 Кбит/сек
Каналы : 6 каналов
Расположение каналов : Front: L C R, Side: L R, LFE
Частота : 48,0 КГц
Битовая глубина : 16 бит
Метод сжатия : С потерями
Размер потока : 17,5 Мбайт (11%)
Заголовок : DUB
Язык : Russian
Default : Да
Forced : Да
Аудио #2
Идентификатор : 3
Формат : DTS
Формат/Информация : Digital Theater Systems
Идентификатор кодека : A_DTS
Продолжительность : 3 м. 49 с.
Вид битрейта : Постоянный
Битрейт : 1510 Кбит/сек
Каналы : 6 каналов
Расположение каналов : Front: L C R, Side: L R, LFE
Частота : 48,0 КГц
Битовая глубина : 16 бит
Метод сжатия : С потерями
Размер потока : 41,3 Мбайт (25%)
Заголовок : ENG
Язык : English
Default : Нет
Forced : Нет
Текст #1
Идентификатор : 4
Формат : UTF-8
Идентификатор кодека : S_TEXT/UTF8
Идентификатор кодека/Информация : UTF-8 Plain Text
Заголовок : Rus Sub
Язык : Russian
Default : Да
Forced : Нет
Текст #2
Идентификатор : 5
Формат : UTF-8
Идентификатор кодека : S_TEXT/UTF8
Идентификатор кодека/Информация : UTF-8 Plain Te
fe0d3d9ad41593e8f4081833c9ade129fc3a6259Безумные мелодии: Кажется я видел котика / Looney Tunes: I Tawt I Taw а Puddy Tat (Мэттью ОКаллаган, Короткометражка, анимация, мультфильм, 2011г) [BDRip 720p, DUB + Original + Sub] Безумные мелодии: Кажется я видел котика / Looney Tunes: I Tawt I Taw а Puddy Tat (Мэттью ОКаллаган, Короткометражка, анимация, мультфильм, 2011г) [BDRip 720p, DUB + Original + Sub] " />

Аплоадер: Админ, дата: 6-08-2012, 15:51, торрент скачан: 359 раз

Понравилась раздача? Посмотрите эти:
  • Подглядывающий на кухне / Kick the Cock (Тинто Брасс, Эротика, короткометра ...
  • Гадкий я 2 / Despicable Me 2 (Пьер Соффин, Крис Рено, мультфильм, фантастик ...
  • Больше чем мёд / More Than Honey (документальный, 2012) [BDRip 720p, Профес ...
  • Начинающие / Beginners (Майк Миллс / Mike Mills, драма, мелодрама, комедия, ...
  • Люди Икс: Первый класс / X-Men: First Class (Мэттью Вон / Matthew Vaughn, ф ...
  • Безумные мелодии: Дорожный бегун и койот / Looney Tunes: Road Runner & Coyo ...
  • Сид, инструкция по выживанию / Surviving Sid (Гален Т. Чу / Galen T. Chu, К ...
  • Безумные мелодии: Дорожный бегун и койот / Looney Tunes: Road Runner & Coyo ...
  • Скрат: Потерянный орех / Scrat: Gone Nutty (Карлос Салдана, короткометражка ...
  • [3D] Безумные мелодии / Looney Tunes (Мэттью О’Каллаган / Matthew OCallagha ...
  • [3D] Кот и цыплёнок / I Tawt I Taw а Puddy Tat (Мэттью ОКаллаган / Matthew ...
  • Правдивая история Кота в сапогах / La véritable histoire du Chat Botté (Риш ...
  • История игрушек: Гавайские каникулы / Toy Story: Hawaiian Vacation (Гари ...
  • Заражение / Contagion (Стивен Содерберг, Фантастика, 2011) [BDRip 1080p, Пр ...
  • Скуби-Ду: Нападение Пантазаура / Scooby-Doo: Legend of the Phantosaur (Дугл ...
  • Свадебный разгром / A Few Best Men (Стефан Эллиотт, Комедия, 2011) [BDRip 7 ...
  • Лоракс: Серенада / The Lorax: Serenade (Кайл Балда, мультфильм, комедия, му ...
  • Павшая империя / Hirokin (Алехо Мо-Сан, фантастика, боевик, драма, приключе ...
  • Большой отрыв БОБа / B.O.B.s Big Break (Роберт Портер, короткометражка, ан ...
  • Миньоны / Minions (Пьер Коффин, Крис Рено, короткометражка, анимация, мульт ...
  • Информация
    Посетители, находящиеся в группе Гости, не могут оставлять комментарии к данной публикации.