вход на сайт

Имя пользователя :
Пароль :

Восстановление пароля Регистрация
Сид, инструкция по выживанию / Surviving Sid (Гален Т. Чу / Galen T. Chu, Карен Дишер, короткометражка, мультфильм2008) [BDRip 720p, DUB + VO + ENG + Rus Sub]
Рейтинг:
(голосов: 1)



[img]{THEME}/images/logopost.png[/img]



Сид, инструкция по выживанию | Surviving Sid

Год выпуска: 2009
Страна: США
Производство: animated short film
Жанр: мультфильм, короткометражка

Режиссёр: Гален Т. Чу | Galen T. Chu, Карен Дишер | Karen Disher
В ролях: Шэйн Баумель, Пол Батчер, Шон Майкл Каннингэм, Карен Дишер, Хамани Гриффин, Джон Хокинсон, Мария Лэрк, Джон Легуизамо, Эмили Осмент, Крис Уэдж

Перевод: 1 - Профессиональный (дублированный)
2 - Любительский (Одноголосый закадровый) (АТОМ)
3 - Оригинал (Английский)
Субтитры: русские

Описание:Сид ведёт детей в поход, попадая на пути во всевозможные передряги. В конце концов дети устают от бесконечных глупостей ленивца и берут предводительство в свои руки.
Качество: BDRip 720p | BDRemux 1080p
Продолжительность: 00:07:59 мин.

Формат: MKV
Видео кодек: AVC
Аудио кодек: AC3
Видео: 1280x720 (16:9), 23,976 fps, ~3430 kbps avg, 0.155 bit/pixel
Аудио #1: 48.0 kHz, 2ch, ~224 kbps avg (DUB)
Аудио #2: 48.0 kHz, 2ch, ~192 kbps avg (VO)
Аудио #3: 48.0 kHz, 6ch, ~448 kbps avg (ENG)
MediaInfo ▼Общее
Уникальный идентификатор : 185563975717627277626641347754294166168 (0x8B9A525DC6BA15B09C4CAE1A80DAC298)
Полное имя : D:КороткометражкиВысокого разрешенияСид, инструкция по выживанию 720Surviving Sid.2008.BDRip 720p.DUB.VO.ENG.SUB.mkv
Формат : Matroska
Версия формата : Version 2
Размер файла : 250 Мбайт
Продолжительность : 7 м. 59 с.
Общий поток : 4381 Кбит/сек
Дата кодирования : UTC 2012-06-29 10:20:08
Программа кодирования : mkvmerge v5.5.0 (Healer) built on Apr 24 2012 23:47:03
Библиотека кодирования : libebml v1.2.3 + libmatroska v1.3.0
Видео
Идентификатор : 1
Формат : AVC
Формат/Информация : Advanced Video Codec
Профиль формата : [email protected]
Параметр CABAC формата : Да
Параметр ReFrames формата : 8 кадров
Идентификатор кодека : V_MPEG4/ISO/AVC
Продолжительность : 7 м. 59 с.
Битрейт : 3430 Кбит/сек
Ширина : 1280 пикселей
Высота : 720 пикселей
Соотношение сторон : 16:9
Частота кадров : 23,976 кадра/сек
Цветовое пространство : YUV
Субдискретизация насыщенности : 4:2:0
Битовая глубина : 8 бит
Тип развёртки : Прогрессивная
Бит/(Пиксели*Кадры) : 0.155
Размер потока : 196 Мбайт (78%)
Библиотека кодирования : x264 core 119 r2106 07efeb4
Настройки программы : cabac=1 / ref=8 / deblock=1:-1:-1 / analyse=0x3:0x133 / me=umh / subme=9 / psy=1 / psy_rd=0.40:0.00 / mixed_ref=0 / me_range=16 / chroma_me=1 / trellis=2 / 8x8dct=1 / cqm=0 / deadzone=21,11 / fast_pskip=0 / chroma_qp_offset=-2 / threads=3 / sliced_threads=0 / nr=0 / decimate=1 / interlaced=0 / bluray_compat=0 / constrained_intra=0 / bframes=8 / b_pyramid=2 / b_adapt=2 / b_bias=0 / direct=1 / weightb=1 / open_gop=0 / weightp=2 / keyint=240 / keyint_min=25 / scenecut=40 / intra_refresh=0 / rc_lookahead=240 / rc=crf / mbtree=1 / crf=16.0 / qcomp=0.60 / qpmin=10 / qpmax=69 / qpstep=4 / ip_ratio=2.20 / aq=1:0.60
Default : Да
Forced : Нет
Аудио #1
Идентификатор : 2
Формат : AC-3
Формат/Информация : Audio Coding 3
Профиль формата : Dolby Digital
Расширение режима : CM (complete main)
Параметр Endianness формата : Big
Идентификатор кодека : A_AC3
Продолжительность : 7 м. 59 с.
Вид битрейта : Постоянный
Битрейт : 224 Кбит/сек
Каналы : 2 канала
Расположение каналов : Front: L R
Частота : 48,0 КГц
Битовая глубина : 16 бит
Метод сжатия : С потерями
Размер потока : 12,8 Мбайт (5%)
Заголовок : DUB
Язык : Russian
Default : Да
Forced : Да
Аудио #2
Идентификатор : 3
Формат : AC-3
Формат/Информация : Audio Coding 3
Расширение режима : CM (complete main)
Параметр Endianness формата : Big
Идентификатор кодека : A_AC3
Продолжительность : 7 м. 59 с.
Вид битрейта : Постоянный
Битрейт : 192 Кбит/сек
Каналы : 2 канала
Расположение каналов : Front: L R
Частота : 48,0 КГц
Битовая глубина : 16 б
6bffdd4425fecaceba26deb868162f2ab7d7d529Сид, инструкция по выживанию / Surviving Sid (Гален Т. Чу / Galen T. Chu, Карен Дишер, короткометражка, мультфильм2008) [BDRip 720p, DUB + VO + ENG + Rus Sub] Сид, инструкция по выживанию / Surviving Sid (Гален Т. Чу / Galen T. Chu, Карен Дишер, короткометражка, мультфильм2008) [BDRip 720p, DUB + VO + ENG + Rus Sub] " />

Аплоадер: Админ, дата: 6-08-2012, 14:24, торрент скачан: 359 раз

Понравилась раздача? Посмотрите эти:
  • Подглядывающий на кухне / Kick the Cock (Тинто Брасс, Эротика, короткометра ...
  • Джобс: Империя соблазна / jOBS (Джошуа Майкл Штерн, драма, биография, 2013) ...
  • Мальчишник: Часть III / The Hangover Part III (Тодд Филлипс, комедия, 2013) ...
  • Иллюзия обмана / Now You See Me [Extended Cut] (Луи Летерье, триллер, крими ...
  • Марафон (Карен Оганесян, комедия, 2013) [DVDRip-AVC, Не требуется]
  • Больше чем мёд / More Than Honey (документальный, 2012) [BDRip 720p, Профес ...
  • Ворон / The Raven (Джеймс МакТиг, Триллер, детектив, 2012) [BDRip 1080p, Ду ...
  • Толстяк на ринге / Here Comes the Boom (Фрэнк Корачи, Боевик, комедия, 2012 ...
  • Суррогат / The Sessions (Бен Луин, Драма, 2012) [BDRip-AVC, Профессиональны ...
  • Чемпионат Англии 2012-2013 / 25-й тур / Обзор / Суббота / BBC Sport [2013 г ...
  • Ошибка телохранителя / The Girl from the Naked Eye (Дэвид Рен, боевик, трил ...
  • Образец 47 / Marvel One-Shot: Item 47 (Луис Д’Эспозито, короткометражка, фа ...
  • Сид, инструкция по выживанию / Surviving Sid (Гален Т. Чу, Карен Дишер, мул ...
  • Белка: Не время для орехов / Scrat: No Time for Nuts (Крис Рено, Майк Труме ...
  • Безумные мелодии: Кажется я видел котика / Looney Tunes: I Tawt I Taw а Pud ...
  • Безумные мелодии: Дорожный бегун и койот / Looney Tunes: Road Runner & Coyo ...
  • Скрат: Потерянный орех / Scrat: Gone Nutty (Карлос Салдана, короткометражка ...
  • История игрушек: Гавайские каникулы / Toy Story: Hawaiian Vacation (Гари ...
  • Свадебный разгром / A Few Best Men (Стефан Эллиотт, Комедия, 2011) [BDRip 7 ...
  • Лоракс: Серенада / The Lorax: Serenade (Кайл Балда, мультфильм, комедия, му ...
  • Большой отрыв БОБа / B.O.B.s Big Break (Роберт Портер, короткометражка, ан ...
  • Миньоны / Minions (Пьер Коффин, Крис Рено, короткометражка, анимация, мульт ...
  • Сид, инструкция по выживанию / Surviving Sid (Гален Т. Чу, Карен Дишер, мул ...
  • Нико 2 / Niko 2: Lentajaveljekset (Кари Юуусонен, Юрген Лердам, Мультфильм, ...
  • Ледниковый период:Выживание Сида / Suriving Sid (Гален Т. Чу, Карен Дишер,м ...
  • Информация
    Посетители, находящиеся в группе Гости, не могут оставлять комментарии к данной публикации.