вход на сайт

Имя пользователя :
Пароль :

Восстановление пароля Регистрация
Белка: Не время для орехов / Scrat: No Time for Nuts (Крис Рено, Майк Трумейер, мультфильм, короткометражка, комедия, приключения, семейный, 2006) [BDRip-AVC, не требуется]
Рейтинг:
(голосов: 1)



[img]{THEME}/images/logopost.png[/img]



«Белка: Не время для орехов / Scrat: No Time for Nuts»


¤ Год выпуска: 2006
¤ Страна:США
¤ Производство: Blue Sky Studios
¤ Жанр: мультфильм, короткометражка, комедия, приключения, семейный

¤ Режиссёр: Крис Рено, Майк Трумейер
¤ В ролях: Крис Уэдж

¤ Перевод: не требуется
¤ Субтитры: нет

« Описание »
Белка находит машину времени и случайно отправляет в другое время жёлудь, также случайно отправляет себе в другое время, в догонку за жёлудем.



« Тех.Данные »
¤ Качество: BDRip-AVC
¤ Продолжительность: ~ 00:07:10 часа

¤ Формат: Matroska-MKV-
¤ Видео кодек: AVC [email protected]
¤ Аудио кодек: Audio Coding 3
¤ Видео: 1024x576 (16:9), 23.976 fps, AVC ~1200 kbps avg, 0.085 bit/pixel
¤ Аудио: 48.00 kHz, Audio Coding 3, 6 ch ~ 448.00 kbps avg

MediaInfo ▼TextОбщее
Уникальный идентификатор : 214134367875477146026166044308936280235 (0xA118C7747FB48E98BE2D69E2FF8748AB)
Полное имя : D:DownloadsБелка.Не время для орехов.2006.BDRip-AVC.mkv
Формат : Matroska
Версия формата : Version 1
Размер файла : 84,2 Мбайт
Продолжительность : 7 м. 10 с.
Общий поток : 1641 Кбит/сек
Дата кодирования : UTC 2008-04-23 05:05:10
Программа кодирования : mkvmerge v2.1.0 (Another Place To Fall) built on Aug 19 2007 13:40:07
Библиотека кодирования : libebml v0.7.7 + libmatroska v0.8.1

Видео
Идентификатор : 1
Формат : AVC
Формат/Информация : Advanced Video Codec
Профиль формата : [email protected]
Параметр CABAC формата : Да
Параметр ReFrames формата : 5 кадров
Идентификатор кодека : V_MPEG4/ISO/AVC
Продолжительность : 7 м. 10 с.
Битрейт : 1200 Кбит/сек
Ширина : 1024 пикселя
Высота : 576 пикселей
Соотношение сторон : 16:9
Частота кадров : 23,976 кадра/сек
Цветовое пространство : YUV
Субдискретизация насыщенности : 4:2:0
Битовая глубина : 8 бит
Тип развёртки : Прогрессивная
Бит/(Пиксели*Кадры) : 0.085
Размер потока : 59,5 Мбайт (71%)
Заголовок : Scrat - No Time For Nuts
Библиотека кодирования : x264 core 58 r798 17e5dac
Настройки программы : cabac=1 / ref=5 / deblock=1:-1:-1 / analyse=0x3:0x133 / me=esa / subme=7 / brdo=1 / mixed_ref=0 / me_range=16 / chroma_me=1 / trellis=0 / 8x8dct=1 / cqm=0 / deadzone=21,11 / chroma_qp_offset=0 / threads=1 / nr=0 / decimate=1 / mbaff=0 / bframes=8 / b_pyramid=1 / b_adapt=1 / b_bias=0 / direct=2 / wpredb=1 / bime=1 / keyint=250 / keyint_min=25 / scenecut=40 / rc=abr / bitrate=1200 / ratetol=1.0 / rceq=blurCplx^(1-qComp) / qcomp=0.60 / qpmin=10 / qpmax=31 / qpstep=4 / ip_ratio=1.40 / pb_ratio=1.30
Default : Да
Forced : Нет

Аудио
Идентификатор : 2
Формат : AC-3
Формат/Информация : Audio Coding 3
Расширение режима : CM (complete main)
Идентификатор кодека : A_AC3
Продолжительность : 7 м. 10 с.
Вид битрейта : Постоянный
Битрейт : 448 Кбит/сек
Каналы : 6 каналов
Расположение каналов : Front: L C R, Side: L R, LFE
Частота : 48,0 КГц
Битовая глубина : 16 бит
Метод сжатия : С потерями
Размер потока : 23,0 Мбайт (27%)
Заголовок : Scrat - No Time For Nuts
Default : Да
Forced : Нет

c44afc741ab4fca849dccd65c1756c4668596234Белка: Не время для орехов / Scrat: No Time for Nuts (Крис Рено, Майк Трумейер, мультфильм, короткометражка, комедия, приключения, семейный, 2006) [BDRip-AVC, не требуется] Белка: Не время для орехов / Scrat: No Time for Nuts (Крис Рено, Майк Трумейер, мультфильм, короткометражка, комедия, приключения, семейный, 2006) [BDRip-AVC, не требуется] " />

Аплоадер: Админ, дата: 3-08-2012, 10:14, торрент скачан: 359 раз

Понравилась раздача? Посмотрите эти:
  • Подглядывающий на кухне / Kick the Cock (Тинто Брасс, Эротика, короткометра ...
  • Усатый нянь (Владимир Грамматиков, комедия, семейный, 1977) [DVDRip-AVC, Не ...
  • Гадкий я 2 / Despicable Me 2 (Пьер Соффин, Крис Рено, мультфильм, фантастик ...
  • На выход! / Get out (Шарлотт Боисон, Жюльен Фоурвел, Паскаль Хен-Квен, Трис ...
  • Королевство кривых зеркал (Александр Роу, фэнтези, семейный, 1963) [BDRip-A ...
  • Лего: Звёздные войны - Награда бомбада / LEGO: Star wars - Вombad Bounty (П ...
  • Возвращение Буратино (Екатерина Михайлова, Мультфильм, приключения, семейны ...
  • Свадебный разгром / A Few Best Men (Стефан Эллиотт, комедия, 2011) [BDRip-A ...
  • Закон доблести / Act of Valor (Майк МакКой, Скотт Во, боевик, триллер, прик ...
  • Образец 47 / Marvel One-Shot: Item 47 (Луис Д’Эспозито, короткометражка, фа ...
  • Убойное Рождество Гарольда и Кумара / A Very Harold & Kumar Christmas (Тодд ...
  • Не время для орехов / No Time for Nuts (Крис Рено, Майк Трумейер, мультфиль ...
  • Иван Царевич и Серый Волк (Владимир Торопчин, мультфильм, семейный, 2011) [ ...
  • Сид, инструкция по выживанию / Surviving Sid (Гален Т. Чу / Galen T. Chu, К ...
  • Безумные мелодии: Кажется я видел котика / Looney Tunes: I Tawt I Taw а Pud ...
  • Безумные мелодии: Дорожный бегун и койот / Looney Tunes: Road Runner & Coyo ...
  • Скрат: Потерянный орех / Scrat: Gone Nutty (Карлос Салдана, короткометражка ...
  • Лоракс: Серенада / The Lorax: Serenade (Кайл Балда, мультфильм, комедия, му ...
  • Большой отрыв БОБа / B.O.B.s Big Break (Роберт Портер, короткометражка, ан ...
  • Миньоны / Minions (Пьер Коффин, Крис Рено, короткометражка, анимация, мульт ...
  • Скрат: Потерянный орех / Scrat: Gone Nutty (Carlos Saldanha, мультфильм, к ...
  • Скарат: Не время для орехов / Scrat: No Time For Nuts (Крис Рено, Майк Тёр ...
  • Сид, инструкция по выживанию / Surviving Sid (Гален Т. Чу, Карен Дишер, мул ...
  • Нико 2 / Niko 2: Lentajaveljekset (Кари Юуусонен, Юрген Лердам, Мультфильм, ...
  • Белка: Не время для орехов / Scrat: No Time for Nuts (Крис Рено, Майк Турма ...
  • Информация
    Посетители, находящиеся в группе Гости, не могут оставлять комментарии к данной публикации.