вход на сайт

Имя пользователя :
Пароль :

Восстановление пароля Регистрация
Эмили Жоли / Emilie jolie (Филипп Шатель, Френсис Нилсен, мультфильм, 2011) [BDRip-AVC, Профессиональный (полное дублирование), +Оригинал]
Рейтинг:
(голосов: 1)



[img]{THEME}/images/logopost.png[/img]



«Эмили Жоли / Emilie jolie»

¤ Год выпуска: 2011
¤ Страна:Франция
¤ Производство: 2d3D Animations, Angoa-Agicoa, Banque Postale Image 4
¤ Жанр: мультфильм

¤ Режиссёр: Филипп Шатель, Френсис Нилсен
¤ В ролях: Камилль Тиммерман, Франсуа-Ксавье Демезон, Эли Семун

¤ Перевод: Профессиональный (полное дублирование) +Оригинал
¤ Субтитры: нет

« Описание »
Эмили — маленькая девочка с голубыми глазами, светлыми волосами и розовыми щечками. Завтра ее первый день в новой школе и она переживает. Сможет ли она завести друзей на новом месте? И главное, сможет ли папа отвлечься от работы, чтобы отвести ее в школу в этот важный день?

Мама Эмили находит среди коробок с вещами книжку, которую сама читала в детстве, и дает ее дочке в надежде, что та отвлечется от хмурых мыслей. В книжке рассказывается история синего крольчонка по имени Жильбер, который из-за своего чрезмерного аппетита попадает в ловушку злой колдуньи.

Читая, Эмили засыпает. Но сказка продолжается…



« Тех.Данные »
¤ Качество: BDRip-AVC - Сохранены оригинальные чаптеры как на Blu-ray.
¤ Продолжительность: 01:15:07часа

¤ Формат: MKV
¤ Видео кодек: AVC [email protected]
¤ Аудио кодек: AC3, DTS
¤ Видео: 1280x720 (16:9), 24.00 fps, AVC ~2248 kbps avg, 0.102 bit/pixel
¤ Аудио: 48.00 kHz, AC3 Dolby Digital, 2 ch, ~192.00 kbps avgРусский
¤ Аудио: 48.00 kHz, DTS, 6 ch, ~1510 kbps abgФранцузский

MediaInfo ▼TextОбщее
Уникальный идентификатор : 187753350015341878542352672817227066878 (0x8D3FFADA6C0D80CA84DF7A8384396DFE)
Полное имя : D:DownloadsЭмили Жоли.2011.BDRip.720p.mkv
Формат : Matroska
Версия формата : Version 2
Размер файла : 2,07 Гбайт
Продолжительность : 1 ч. 15 м.
Общий поток : 3946 Кбит/сек
Название фильма : IronClub.tv
Дата кодирования : UTC 2012-07-15 14:59:09
Программа кодирования : mkvmerge v5.7.0 (The Whirlwind) built on Jul 8 2012 20:08:51
Библиотека кодирования : libebml v1.2.3 + libmatroska v1.3.0

Видео
Идентификатор : 1
Формат : AVC
Формат/Информация : Advanced Video Codec
Профиль формата : [email protected]
Параметр CABAC формата : Да
Параметр ReFrames формата : 5 кадров
Идентификатор кодека : V_MPEG4/ISO/AVC
Продолжительность : 1 ч. 15 м.
Битрейт : 2248 Кбит/сек
Ширина : 1280 пикселей
Высота : 720 пикселей
Соотношение сторон : 16:9
Частота кадров : 24,000 кадра/сек
Цветовое пространство : YUV
Субдискретизация насыщенности : 4:2:0
Битовая глубина : 8 бит
Тип развёртки : Прогрессивная
Бит/(Пиксели*Кадры) : 0.102
Размер потока : 1,14 Гбайт (55%)
Библиотека кодирования : x264 core 122 r2184 5c85e0a
Настройки программы : cabac=1 / ref=5 / deblock=1:0:0 / analyse=0x3:0x113 / me=umh / subme=8 / psy=1 / psy_rd=1.00:0.00 / mixed_ref=1 / me_range=16 / chroma_me=1 / trellis=1 / 8x8dct=1 / cqm=0 / deadzone=21,11 / fast_pskip=1 / chroma_qp_offset=-2 / threads=6 / sliced_threads=0 / nr=0 / decimate=1 / interlaced=0 / bluray_compat=0 / constrained_intra=0 / bframes=3 / b_pyramid=2 / b_adapt=2 / b_bias=0 / direct=3 / weightb=1 / open_gop=0 / weightp=2 / keyint=240 / keyint_min=24 / scenecut=40 / intra_refresh=0 / rc_lookahead=50 / rc=2pass / mbtree=1 / bitrate=2248 / ratetol=1.0 / qcomp=0.60 / qpmin=0 / qpmax=69 / qpstep=4 / cplxblur=20.0 / qblur=0.5 / ip_ratio=1.40 / aq=1:1.00
Язык : English
Default : Да
Forced : Нет

Аудио #1
Идентификатор : 2
Формат : AC-3
Формат/Информация : Audio Coding 3
Расширение режима : CM (complete main)
Идентификатор кодека : A_AC3
Продолжительность : 1 ч. 15 м.
Вид битрейта : Постоянный
Битрейт : 192 Кбит/сек
Каналы : 2 канала
Расположение каналов : Front: L R
Частота : 48,0 КГц
Битовая глубина : 16 бит
Метод сжатия : С потерями
Размер потока : 103 Мбайт (5%)
Заголовок : Russian
Язык : Russian
Default : Да
Forced : Нет

Аудио #2
Идентификатор : 3
Формат : DTS
Формат/Информация : Digital Theater Systems
Идентификатор кодека : A_DTS
Продолжительность : 1 ч.
d4db25af0d78086a6b880261d6b06506cdcd6559Эмили Жоли / Emilie jolie (Филипп Шатель, Френсис Нилсен, мультфильм, 2011) [BDRip-AVC, Профессиональный (полное дублирование), +Оригинал] Эмили Жоли / Emilie jolie (Филипп Шатель, Френсис Нилсен, мультфильм, 2011) [BDRip-AVC, Профессиональный (полное дублирование), +Оригинал] " />

Аплоадер: Админ, дата: 18-07-2012, 10:05, торрент скачан: 359 раз

Понравилась раздача? Посмотрите эти:
  • Лавлэйс / Lovelace (Роб Эпштейн, Джеффри Фридман, драма, биография, 2013) [ ...
  • Рикошет / Ricochet (Ник Гомез, драма, детектив, 2011) [BDRip-AVC, Профессио ...
  • Даю год / I Give It a Year (Дэн Мазер, мелодрама, комедия, 2012) [BDRip-AVC ...
  • Суррогат / The Sessions (Бен Луин, Драма, 2012) [BDRip-AVC, Профессиональны ...
  • Ошибка телохранителя / The Girl from the Naked Eye (Дэвид Рен, боевик, трил ...
  • Челюсти 3D / Shark Night 3D ( Дэвид Р. Эллис, ужасы, 2011) [BDRip-AVC, Проф ...
  • Драйв / Drive (Николас Виндинг Рёфн, боевик, триллер, драма, криминал, 2011 ...
  • Переростки / The Inbetweeners (Бен Палмер, Комедия, 2011) [BDRip-AVC, Профе ...
  • Сид, инструкция по выживанию / Surviving Sid (Гален Т. Чу / Galen T. Chu, К ...
  • Безумные мелодии: Кажется я видел котика / Looney Tunes: I Tawt I Taw а Pud ...
  • Скрат: Потерянный орех / Scrat: Gone Nutty (Карлос Салдана, короткометражка ...
  • Правдивая история Кота в сапогах / La véritable histoire du Chat Botté (Риш ...
  • История игрушек: Гавайские каникулы / Toy Story: Hawaiian Vacation (Гари ...
  • Заражение / Contagion (Стивен Содерберг, Фантастика, 2011) [BDRip 1080p, Пр ...
  • Переростки / The Inbetweeners (Бен Палмер / Ben Palmer, комедия, 2011) [BDR ...
  • Стыд / Shame (Стив МакКуин, драма, 2011) [BDRip 1080p, полное дублирование, ...
  • Бедная богатая девочка / Young Adult (Джейсон Райтман, драма, комедия, 2011 ...
  • 1+1 / Неприкасаемые / Intouchables (Оливье Накаш, Эрик Толедано, Драма, 201 ...
  • Лоракс: Серенада / The Lorax: Serenade (Кайл Балда, мультфильм, комедия, му ...
  • Павшая империя / Hirokin (Алехо Мо-Сан, фантастика, боевик, драма, приключе ...
  • Большой отрыв БОБа / B.O.B.s Big Break (Роберт Портер, короткометражка, ан ...
  • Петля времени / Looper (Райан Джонсон, Фантастика, боевик, триллер, кримина ...
  • Сейчас самое время / Now Is Good (Ол Паркер, Мелодрама, 2012) [BDRip-AVC, П ...
  • Эмили Жоли / Emilie jolie (Филипп Шатель, Френсис Нилсен, Мультфильм, 2011) ...
  • Эмили Жоли / Emilie jolie (Филипп Шатель, Френсис Нилсен, мультфильм, 2011) ...
  • Информация
    Посетители, находящиеся в группе Гости, не могут оставлять комментарии к данной публикации.