вход на сайт

Имя пользователя :
Пароль :

Восстановление пароля Регистрация
Двигай время! / Los ilusionautas (Эдуардо Шульдт, Мультфильм, фэнтези, приключения, семейный, 2012) [BDRip-AVC, Дубляж]
Рейтинг:
(голосов: 1)



[img]{THEME}/images/logopost.png[/img]



Двигай время! / Los ilusionautas

Год выпуска: 2012
Страна: Франция, Перу
Производство: Aronnax Animation Studios
Жанр: Мультфильм, фэнтези, приключения, семейный

Режиссёр: Эдуардо Шульдт
В ролях: Nathan Aswell, Чера Бэйли, Кэтлин Барр, Лиллиэн Карлсон, Гари Чок, Йен Джеймс Корлетт, Майкл Донован, Kent Gallie, Фил Хэйес, Роджер Келли

Перевод: Дубляж
Субтитры: Отсутствуют

Описание: Невероятные события потрясают Францию. Все герои знаменитых романов Жюля Верна ожили и, сами того не ведая, несут хаос и разрушения. А всё потому, что новый президент Франции и министр культуры задумали внести в романы великого писателя правки и перепутали там всё. Спасти ситуацию может лишь команда из 4-х одарённых детей, которые отправлены в прошлое, чтобы вернуть все истории в прежнее русло и поместить героев Жюля Верна обратно на страницы книг.



Качество: BDRip-AVC
Продолжительность: 01:21:32 час.



Формат: MKV
Видео кодек: x264
Аудио кодек: AC3
Видео: 1280x720 (16:9), 23.976 fps, x264 ~3500 kbps avg,0.158 bit/pixel
Аудио:48 kHz, AC3 Dolby Digital, 3/2 (L,C,R,l,r) + LFE ch, ~640 kbps


MediaInfo ▼General
Unique ID : 199429485632537807004692106194873635971 (0x9608B8C90581DAE4A6BDE74AF53A5483)
Complete name : Dvigaj.vremya.2012.D.BDRip.720p.IRONCLUB.mkv
Format : Matroska
Format version : Version 2
File size : 2.36 GiB
Duration : 1h 21mn
Overall bit rate : 4 142 Kbps
Movie name : IRONCLUB
Encoded date : UTC 2012-07-04 17:29:59
Writing application : mkvmerge v4.9.1 (Ich will) built on Jul 11 2011 23:53:15
Writing library : libebml v1.2.1 + libmatroska v1.1.1

Video
ID : 1
Format : AVC
Format/Info : Advanced Video Codec
Format profile : [email protected]
Format settings, CABAC : Yes
Format settings, ReFrames : 9 frames
Codec ID : V_MPEG4/ISO/AVC
Duration : 1h 21mn
Bit rate : 3 500 Kbps
Width : 1 280 pixels
Height : 720 pixels
Display aspect ratio : 16:9
Frame rate : 23.976 fps
Color space : YUV
Chroma subsampling : 4:2:0
Bit depth : 8 bits
Scan type : Progressive
Bits/(Pixel*Frame) : 0.158
Stream size : 1.95 GiB (83%)
Title : Los ilusionautas (2012)
Writing library : x264 core 125 r2200 999b753
Encoding settings : cabac=1 / ref=9 / deblock=1:-3:-3 / analyse=0x3:0x113 / me=umh / subme=10 / psy=1 / psy_rd=1.00:0.00 / mixed_ref=1 / me_range=24 / chroma_me=1 / trellis=2 / 8x8dct=1 / cqm=0 / deadzone=21,11 / fast_pskip=0 / chroma_qp_offset=-2 / threads=12 / lookahead_threads=2 / sliced_threads=0 / nr=0 / decimate=1 / interlaced=0 / bluray_compat=0 / constrained_intra=0 / bframes=7 / b_pyramid=2 / b_adapt=2 / b_bias=0 / direct=3 / weightb=1 / open_gop=0 / weightp=2 / keyint=250 / keyint_min=23 / scenecut=40 / intra_refresh=0 / rc_lookahead=40 / rc=2pass / mbtree=0 / bitrate=3500 / ratetol=1.0 / qcomp=0.60 / qpmin=10 / qpmax=69 / qpstep=4 / cplxblur=20.0 / qblur=0.5 / vbv_maxrate=50000 / vbv_bufsize=62500 / nal_hrd=none / ip_ratio=1.40 / pb_ratio=1.30 / aq=1:1.00
Language : English
Default : Yes
Forced : Yes
Matrix coefficients : BT.709-5, BT.1361, IEC 61966-2-4 709, SMPTE RP177

Audio
ID : 2
Format : AC-3
Format/Info : Audio Coding 3
Mode extension : CM (complete main)
Format settings, Endianness : Big
Codec ID : A_AC3
Duration : 1h 21mn
Bit rate mode : Constant
Bit rate : 640 Kbps
Channel(s) : 6 channels
Channel positions : Front: L C R, Side: L R, LFE
Sampling rate : 48.0 KHz
Bit depth : 16 bits
Compression mode : Lossy
Stream size : 373 MiB (15%)
Title : DD 5.1 @ 640 kbps
Language : Russian
Default : Yes
Forced : Yes

Menu
00:00:00.000 : en:00:00:00.000
00:08:59.830 : en:00:08:59.830
00:15:53.285 : en:00:15:53.285
00:23:55.642 : en:00:23:55.642
00:32:15.558 : en:00:32:15.558
00:39:46.842 : en:00:39:46.842
00:46:47.179 : en:00:46:47.179
00:56:04.069 : en:00:56:04.069
01:04:48.301 : en:01:04:48.301
01:11:13.310 : en:01:11:13.310
01:18:55.439 : en:01:18:55.439Дата премьеры (мир): 26 января 2012
Дата премьеры
a4d9263732bb59e07e6a6ae6950455f6ccfdba6bДвигай время! / Los ilusionautas (Эдуардо Шульдт, Мультфильм, фэнтези, приключения, семейный, 2012) [BDRip-AVC, Дубляж] Двигай время! / Los ilusionautas (Эдуардо Шульдт, Мультфильм, фэнтези, приключения, семейный, 2012) [BDRip-AVC, Дубляж] " />

Аплоадер: Админ, дата: 5-07-2012, 00:11, торрент скачан: 359 раз

Понравилась раздача? Посмотрите эти:
  • FLO / NRG [2012, Pop, Dance, MasterRip]
  • Скуби-Ду! Маска голубого сокола / Scooby-Doo! Mask of the Blue Falcon (Майк ...
  • Снежная королева (Максим Свешников, Владлен Барбэ, Мультфильм, фэнтези, при ...
  • Марко Макако / Marco Macaco (Жан Рабек, Мультфильм, комедия, семейный, 2012 ...
  • Смурфики / The Smurfs (Раджа Госнелл, Мультфильм, фэнтези, комедия, приключ ...
  • Проект X: Дорвались / Project X (Нима Нуризаде, комедия, 2012) [BDRip-AVC, ...
  • Двигай время! / Los ilusionautas (Эдуардо Шульдт, Мультфильм, 2012) [BDRip- ...
  • Закон доблести / Act of Valor (Майк МакКой, Скотт Во, боевик, триллер, прик ...
  • Джок / Jock (Дункан МакНили, мультфильм, комедия, приключения, семейный, 20 ...
  • Двигай время! / Los ilusionautas (Эдуардо Шульдт, Мультфильм, фэнтези, прик ...
  • Лоракс / Dr. Seuss The Lorax (Крис Рено, Кайл Балда, Мультфильм, фэнтези, с ...
  • Пираты! Банда неудачников / The Pirates! Band of Misfits (Питер Лорд, Джефф ...
  • Золушка: Полный вперед! / Cendrillon au Far West (Паскаль Эрольд, Мультфиль ...
  • Белоснежка и охотник [Театральная версия] / Snow White and the Huntsman [Th ...
  • ЗЛО / V/H/S (Мэттью Беттинелли, Адам Вингард, Дэвид Брукнер, ужасы, 2012) [ ...
  • Любовь С Препятствиями / Un Bonheur Narrive Jamais Seul (Джеймс Хат, Мелодр ...
  • Патруль / End of Watch (Дэвид Эйр, Триллер, драма, криминал, 2012) [BDRip 7 ...
  • Феи: Тайна Зимнего Леса / Secret Of The Wings (Роберт Ганнавей, Пегги Холмс ...
  • Mylene Farmer / Du Temps [2011, Pop, HDTVRip]
  • Mylene Farmer / Bleu Noir [2011, Pop, HDTVRip]
  • Двигай время! / Los ilusionautas (Эдуардо Шульдт / Eduardo Schuldt) [2012 г ...
  • Двигай время! / Los ilusionautas (Эдуардо Шульдт, Мультфильм, фэнтези, прик ...
  • Двигай время! / Los ilusionautas (Эдуардо Шульдт, Мультфильм, фэнтези, прик ...
  • Двигай время! / Los ilusionautas (Эдуардо Шульдт, Мультфильм, Фэнтези, Прик ...
  • [3D] Двигай время! 3D / Los ilusionautas 3D (Эдуардо Шульдт, Мультфильм, 20 ...
  • Информация
    Посетители, находящиеся в группе Гости, не могут оставлять комментарии к данной публикации.