вход на сайт

Имя пользователя :
Пароль :

Восстановление пароля Регистрация
Союз зверей / Die Konferenz der Tiere (Райнхард Клоосс, Хольгер Таппе, мультфильм, комедия, приключения, семейный, 2010) [BDRip-AVC, Полное дублирование]
Рейтинг:
(голосов: 1)



[img]{THEME}/images/logopost.png[/img]



«Союз зверей / Die Konferenz der Tiere»

Год выпуска: 2010
Страна: Германия
Производство: Ambient Entertainment GmbH, White Horse Pictures
Жанр: мультфильм, комедия, приключения, семейный

Режиссёр: Райнхард Клоосс, Хольгер Таппе
В ролях: Билли Бич, Джим Броудбент, Джеймс Корден, Марк Дирайсон, Омид Джалили, Джейсон Донован, Доун Френч, Томас Фритш, Стивен Фрай, Майкл Гловер

Перевод: Полное дублирование
Озвучка: Илья Любимов, Тимур Родригез, Иван Жарков, Любовь Германова, Вероника Саркисова
Субтитры: нет

Описание
Команда веселых зверей нашла зеленый оазис посреди засушливой африканской пустыни, чтобы там поселиться. Но их жизнь оказалась под угрозой — река Окаванго стала быстро пересыхать. Друзья выясняют, что в этом виноваты люди, которые построили дамбу. Звери, — такие разные, — от льва до трусливого суслика, — объединяются в союз, чтобы бросить вызов людям и спасти долину! Смешная ватага разношерстных, винторогих и парнокопытных устроит развеселую жизнь людям и наведет свой «порядок» на дамбе!



Доп. информация
MediaInfo ▼TextОбщее
Уникальный идентификатор : 182232584198426527320765411428584015488 (0x8918B8154DF7A589A0D0EBE576264680)
Полное имя : D:DownloadsСоюз зверей.2010.D.BDRip.mkv
Формат : Matroska
Версия формата : Version 2
Размер файла : 1,43 Гбайт
Продолжительность : 1 ч. 33 м.
Общий поток : 2200 Кбит/сек
Название фильма : -=POTROKS=-
Дата кодирования : UTC 2012-01-04 05:09:31
Программа кодирования : mkvmerge v5.0.1 (Es ist Sommer) built on Oct 9 2011 11:55:43
Библиотека кодирования : libebml v1.2.2 + libmatroska v1.3.0

Видео
Идентификатор : 1
Формат : AVC
Формат/Информация : Advanced Video Codec
Профиль формата : [email protected]
Параметр CABAC формата : Да
Параметр ReFrames формата : 12 кадров
Идентификатор кодека : V_MPEG4/ISO/AVC
Продолжительность : 1 ч. 33 м.
Битрейт : 1752 Кбит/сек
Ширина : 1016 пикселей
Высота : 432 пикселя
Соотношение сторон : 2,35:1
Режим частоты кадров : Переменный
Частота кадров : 23,976 кадра/сек
Цветовое пространство : YUV
Субдискретизация насыщенности : 4:2:0
Битовая глубина : 8 бит
Тип развёртки : Прогрессивная
Бит/(Пиксели*Кадры) : 0.166
Размер потока : 1,11 Гбайт (78%)
Заголовок : Souz.Zverej.2011.D.BDRip.x264.R.G. AVI AVC
Библиотека кодирования : x264 core 116 r2019M 9cc407d
Настройки программы : cabac=1 / ref=13 / deblock=1:-2:-2 / analyse=0x3:0x133 / me=umh / subme=9 / psy=1 / psy_rd=1.00:0.20 / mixed_ref=1 / me_range=48 / chroma_me=1 / trellis=1 / 8x8dct=1 / cqm=0 / deadzone=21,11 / fast_pskip=0 / chroma_qp_offset=-3 / threads=8 / sliced_threads=0 / nr=0 / decimate=1 / interlaced=0 / bluray_compat=0 / constrained_intra=0 / bframes=10 / b_pyramid=1 / b_adapt=2 / b_bias=0 / direct=3 / weightb=1 / open_gop=0 / weightp=2 / keyint=230 / keyint_min=23 / scenecut=40 / intra_refresh=0 / rc_lookahead=40 / rc=2pass / mbtree=1 / bitrate=1752 / ratetol=1.0 / qcomp=0.60 / qpmin=10 / qpmax=51 / qpstep=4 / cplxblur=20.0 / qblur=0.5 / ip_ratio=1.37 / aq=1:1.20
Язык : English
Default : Да
Forced : Нет

Аудио
Идентификатор : 2
Формат : AC-3
Формат/Информация : Audio Coding 3
Расширение режима : CM (complete main)
Идентификатор кодека : A_AC3
Продолжительность : 1 ч. 33 м.
Вид битрейта : Постоянный
Битрейт : 448 Кбит/сек
Каналы : 6 каналов
Расположение каналов : Front: L C R, Side: L R, LFE
Частота : 48,0 КГц
Битовая глубина : 16 бит
Метод сжатия : С потерями
Задержка видео : 28 мс.
Размер потока : 298 Мбайт (20%)
Заголовок : DUB
Язык : Russian
Default : Да
Forced : Да


Тех. данные
Качество: BDRip-AVC [Blu-ray]
Продолжительность: 01:33:06 часа

Формат: MKV
Видео кодек: AVC [email protected]
Аудио кодек: AC-3
Видео: 1016x432 (2,35:1), 23,976 fps, AVC, ~ 1752 kbps, 0.166 bit/pixel
Аудио: 48.00 kHz, Audio Coding 3, 6 ch, ~ 448.00 kbps avg


|Cтол заказов| Наши раздачи| Набор в группу| Сказать спасибо|


a853c985a9d015e9497de9aa8cab05f350337f38Союз зверей / Die Konferenz der Tiere (Райнхард Клоосс, Хольгер Таппе, мультфильм, комедия, приключения, семейный, 2010) [BDRip-AVC, Полное дублирование] Союз зверей / Die Konferenz der Tiere (Райнхард Клоосс, Хольгер Таппе, мультфильм, комедия, приключения, семейный, 2010) [BDRip-AVC, Полное дублирование] " />

Аплоадер: Админ, дата: 16-04-2012, 11:32, торрент скачан: 359 раз

Понравилась раздача? Посмотрите эти:
  • Поймай толстуху, если сможешь [Театральная версия] / Identity Thief [Theatr ...
  • Больше, чем любовь / A Lot Like Love (Найджел Коул, Драма, мелодрама, комед ...
  • Даю год / I Give It a Year (Дэн Мазер, мелодрама, комедия, 2012) [BDRip-AVC ...
  • Толстяк на ринге / Here Comes the Boom (Фрэнк Корачи, Боевик, комедия, 2012 ...
  • Суррогат / The Sessions (Бен Луин, Драма, 2012) [BDRip-AVC, Профессиональны ...
  • Чемпионат Англии 2012-2013 / 25-й тур / Обзор / Суббота / BBC Sport [2013 г ...
  • Драйв / Drive (Николас Виндинг Рёфн, боевик, триллер, драма, криминал, 2011 ...
  • Любовь с акцентом (Резо Гигинеишвили, Комедия, приключения, 2012) [BDRip-AV ...
  • Иван Царевич и Серый Волк (Владимир Торопчин, мультфильм, семейный, 2011) [ ...
  • Белка: Не время для орехов / Scrat: No Time for Nuts (Крис Рено, Майк Труме ...
  • Безумные мелодии: Кажется я видел котика / Looney Tunes: I Tawt I Taw а Pud ...
  • Скрат: Потерянный орех / Scrat: Gone Nutty (Карлос Салдана, короткометражка ...
  • [3D] Союз зверей / Konferenz der Tiere / Animals United (Райнхард Клоосс, Х ...
  • Союз зверей / Die Konferenz der Tiere (Райнхард Клоосс, Хольгер Таппе , мул ...
  • Заражение / Contagion (Стивен Содерберг, Фантастика, 2011) [BDRip 1080p, Пр ...
  • Переростки / The Inbetweeners (Бен Палмер / Ben Palmer, комедия, 2011) [BDR ...
  • Лоракс: Серенада / The Lorax: Serenade (Кайл Балда, мультфильм, комедия, му ...
  • Нико 2 / Niko 2: Lentajaveljekset (Кари Юуусонен, Юрген Лердам, Мультфильм, ...
  • Союз зверей / Die Konferenz der Tiere (Райнхард Клоосс, Хольгер Таппе, Муль ...
  • Союз зверей / Animals United / Konferenz der Tiere (Райнхард Клоосс, Хольге ...
  • Информация
    Посетители, находящиеся в группе Гости, не могут оставлять комментарии к данной публикации.