вход на сайт

Имя пользователя :
Пароль :

Восстановление пароля Регистрация
Кот в сапогах / Puss in Boots (Крис Миллер, мультфильм, 2011) [ВDRip-AVC, Полное дублирование + SUB]
Рейтинг:
(голосов: 1)



[img]{THEME}/images/logopost.png[/img]



Кот в сапогах / Puss in Boots

Год выпуска: 2011
Страна: США
Производство: DreamWorks Animation
Жанр: мультфильм, комедия, приключения, семейный

Режиссёр: Крис Миллер
В ролях: Антонио Бандерас, Сальма Хайек, Зак Галифианакис, Билли Боб Торнтон, Эми Седарис, Констанс Мари, Гильермо дель Торо, Рич Дитль, Райан Крего, Том Вилер

Перевод: Полное дублирование
Субтитры: Русские (форс. + полные), Английские

Описание: Мечи пересекутся и сердца будут разбиты в приключениях с одним из самых любимых персонажей из Шрэка — котом в сапогах. Это удалая поездка ранних лет кота в сапогах, когда он объединяется с умным Шалтай-Болтаем и сообразительной Кисой, чтобы украсть знаменитую Гусыню, несущую золотые яйца.

IMDB: 6.80 (31 242)
КиноПоиск: 7.271 (22 719)

Качество: BDRip-AVC
Продолжительность: 01:30:14 час.

Rip by: Vaippp

Формат: MKV
Видео кодек: x264
Аудио кодек: AC3
Видео: 1024 x 436 (2.35:1), 23,976 fps, x264 ~1925 kbps avg, 0.180 bit/pixel
Аудио: 48 kHz, AC3 Dolby Digital, 3/2 (L,C,R,l,r) + LFE ch, ~384 kbps

Дата премьеры (мир): 27 октября 2011
Дата премьеры (РФ): 27 октября 2011, «Централ Партнершип»

MediaInfo ▼General
Unique ID : 243081602641471132052131753500239155458 (0xB6DFD051A31FC2D7B6F03089AD7B5102)
Complete name : I:OtherKot.V.Sapogah.2011.RUS.BDRip-AVC.AC3.-HQ-ViDEO.mkv
Format : Matroska
Format version : Version 2
File size : 1.46 GiB
Duration : 1h 30mn
Overall bit rate : 2 310 Kbps
Movie name : Puss in Boots (2011) - HQ-ViDEO
Encoded date : UTC 2012-03-12 21:23:57
Writing application : mkvmerge v5.4.0 (Piper) built on Mar 10 2012 13:34:39
Writing library : libebml v1.2.3 + libmatroska v1.3.0

Video
ID : 1
Format : AVC
Format/Info : Advanced Video Codec
Format profile : [email protected]
Format settings, CABAC : Yes
Format settings, ReFrames : 15 frames
Codec ID : V_MPEG4/ISO/AVC
Duration : 1h 30mn
Bit rate : 1 925 Kbps
Width : 1 024 pixels
Height : 436 pixels
Display aspect ratio : 2.35:1
Frame rate : 23.976 fps
Color space : YUV
Chroma subsampling : 4:2:0
Bit depth : 8 bits
Scan type : Progressive
Bits/(Pixel*Frame) : 0.180
Stream size : 1.18 GiB (81%)
Title : Vaippp
Writing library : x264 core 120 r2146kMod bcd41db
Encoding settings : cabac=1 / ref=15 / deblock=1:-1:-1 / analyse=0x3:0x113 / me=umh / subme=10 / psy=1 / fade_compensate=0.00 / psy_rd=0.80:0.00 / mixed_ref=1 / me_range=24 / chroma_me=1 / trellis=2 / 8x8dct=1 / cqm=0 / deadzone=21,11 / fast_pskip=0 / chroma_qp_offset=-2 / threads=12 / sliced_threads=0 / nr=0 / decimate=0 / interlaced=0 / bluray_compat=0 / constrained_intra=0 / bframes=9 / b_pyramid=2 / b_adapt=2 / b_bias=0 / direct=3 / weightb=1 / open_gop=0 / weightp=2 / keyint=240 / keyint_min=22 / scenecut=40 / intra_refresh=0 / rc_lookahead=40 / rc=2pass / mbtree=0 / bitrate=1925 / ratetol=1.0 / qcomp=0.60 / qpmin=0 / qpmax=65 / qpstep=4 / cplxblur=20.0 / qblur=0.5 / vbv_maxrate=50000 / vbv_bufsize=62500 / nal_hrd=none / ip_ratio=1.20 / pb_ratio=1.30 / aq=3:0.80 / zones=116453,129817,b=0.5
Language : English
Default : Yes
Forced : No
Matrix coefficients : BT.709-5, BT.1361, IEC 61966-2-4 709, SMPTE RP177

Audio
ID : 2
Format : AC-3
Format/Info : Audio Coding 3
Mode extension : CM (complete main)
Codec ID : A_AC3
Duration : 1h 30mn
Bit rate mode : Constant
Bit rate : 384 Kbps
Channel(s) : 6 channels
Channel positions : Front: L C R, Side: L R, LFE
Sampling rate : 48.0 KHz
Bit depth : 16 bits
Compression mode : Lossy
Stream size : 248 MiB (17%)
Title : DUB @ R5
Language : Russian
Default : Yes
Forced : Yes

Text #1
ID : 3
Format : UTF-8
Codec ID : S_TEXT/UTF8
Codec ID/Info : UTF-8 Plain Text
Title : Forced @ R5
Language : Russian
Default : Yes
Forced : Yes

Text #2
ID : 4
Format : UTF-8
Codec ID : S_TEXT/UTF8
Codec ID/Info : UTF-8 Plain Text
Title : voronine
Language : Russian
Default : No
Forced : No

Text #3
ID : 5
Format : U
c4a82b7423d1d1fbc38e1ba9e59bc254375cae4fКот в сапогах / Puss in Boots (Крис Миллер, мультфильм, 2011) [ВDRip-AVC, Полное дублирование + SUB] Кот в сапогах / Puss in Boots (Крис Миллер, мультфильм, 2011) [ВDRip-AVC, Полное дублирование + SUB] " />

Аплоадер: Админ, дата: 19-03-2012, 12:07, торрент скачан: 359 раз

Понравилась раздача? Посмотрите эти:
  • Кот в сапогах / Puss in Boots (Крис Миллер, Мультфильм, комедия, приключени ...
  • Кот в сапогах / Puss in Boots (Крис Миллер, Мультфильм, 2011) [BDRip - AVC, ...
  • Кот в сапогах / Puss in Boots (Крис Миллер, Мультфильм, 2011) [BDRip - AVC, ...
  • Кот в сапогах / Puss in Boots (Крис Миллер, мультфильм, 2011) [ВDRip-AVC, Д ...
  • Кот в Сапогах: Три чертёнка / Puss in Boots: The Three Diablos (Раман Хюи, ...
  • Кот в сапогах / Puss in Boots (Крис Миллер, Мультфильм, комедия, приключени ...
  • [3D] Кот в сапогах / Puss in Boots (Крис Миллер / Chris Miller, Мультфильм, ...
  • [3D] Кот в сапогах 3D / Puss in Boots 3D (Крис Миллер, Мультфильм, 2011) [B ...
  • Кот в сапогах / Puss in Boots (Крис Миллер, мультфильм, фэнтези, комедия, п ...
  • Кот в сапогах / Puss in Boots (Крис Миллер, Мультфильм, 2011) [BDRip 720p, ...
  • Кот в сапогах: Три Чертенка / Puss in Boots: The Three Diablos (Раман Хюи, ...
  • Кот в сапогах: Три Чертенка / Puss in Boots: The Three Diablos (Раман Хюи, ...
  • Кот в сапогах / Puss in Boots (Крис Миллер / Chris Miller, мультфильм, фэнт ...
  • [iPhone, iPod] Кот в сапогах / Puss in Boots (Крис Миллер, мультфильм, 2011 ...
  • Кот в сапогах / Puss in Boots (Крис Миллер, мультфильм, комедия, приключени ...
  • Кот в сапогах: Три Чертенка / Puss in Boots: The Three Diablos (Раман Хюи, ...
  • Кот в сапогах: Три Чертенка / Puss in Boots: The Three Diablos (Раман Хюи, ...
  • Кот в сапогах: Три Чертенка / Puss in Boots: The Three Diablos (Раман Хюи, ...
  • Кот в сапогах / Puss in Boots (Крис Миллер, мультфильм, 2011) [ВDRip, Полно ...
  • Кот в сапогах / Puss in Boots (Крис Миллер, мультфильм, комедия, приключени ...
  • [MULT] Кот в сапогах / Puss in Boots (Крис Миллер / Chris Miller) [2011, му ...
  • Кот в Сапогах: Три дьяволёнка / Три чертёнка / Puss in Boots: The Three Dia ...
  • [3D] Кот в сапогах 3D / Puss in Boots 3D (Крис Миллер, Мультфильм, комедия, ...
  • Кот в сапогах / Puss in Boots (Крис Миллер, Мультфильм, комедия, приключе ...
  • Кот в сапогах / Puss in Boots (Крис Миллер, Мультфильм, комедия, приключени ...
  • Информация
    Посетители, находящиеся в группе Гости, не могут оставлять комментарии к данной публикации.