вход на сайт

Имя пользователя :
Пароль :

Восстановление пароля Регистрация
Пути ненависти / Paths of Hate (Дамиан Ненов, мультфильм, короткометражка, 2010) [WEBRip 720р, Не требуется]
Рейтинг:
(голосов: 1)



[img]{THEME}/images/logopost.png[/img]



Пути ненависти / Paths of Hate

Год выпуска: 2010
Страна: Польша
Производство: Platige Image
Жанр: мультфильм, короткометражка

Режиссёр: Дамиан Ненов / Damian Nenow
В ролях:

Перевод: Не требуется
Субтитры: Отсутствуют

Описание: Стремление к слепой ненависти, своеобразному бешенству или разрушительной ярости приводят к полному разрушению в конце. Не имеет значения, два это человека или миллион людей. Жизнь очень коротка. Будущее поколение получит не больше, чем шрамы - кровавые следы путей ненависти...



Качество: WEBRip
Продолжительность: 00:10:31

Формат: MP4
Видео кодек: AVC
Аудио кодек: AAC LC
Видео: 2127 Кбит/сек, 1280*720 (16:9), в 25,000 кадров/сек, AVC ([email protected]) (CABAC / 1 Ref Frames), 0.092 bit/pixel
Аудио: 149 Кбит/сек, 44,1 КГц, 2 канала, AAC (LC)

MediaInfo: ▼TextОбщее
Кол-во : 282
Кол-во потоков такого типа : 1
Тип потока : General
Тип потока : Общее
Идентификатор типа потока : 0
Inform : MPEG-4 (Base Media / Version 2): 172 Мбайт, 10 м.
Кол-во видеопотоков : 1
Кол-во аудиопотоков : 1
Video_Format_List : AVC
Video_Format_WithHint_List : AVC
Видеокодеки : AVC
Audio_Format_List : AAC
Audio_Format_WithHint_List : AAC
Аудиокодеки : AAC LC
Полное имя : D:КазторкаРелизы для казторкиПути ненависти - Paths of Hate (Damian Nenow) 2010[kaztorka.org].mp4
Имя папки : D:КазторкаРелизы для казторки
Имя файла : Пути ненависти - Paths of Hate (Damian Nenow) 2010[kaztorka.org]
Расширение : mp4
Формат : MPEG-4
Формат : MPEG-4
Формат/Используется в : mp4 m4v m4a m4b m4p 3gpp 3gp 3gpp2 3g2 k3g jpm jpx mqv ismv isma f4v
Коммерческое название : MPEG-4
Профиль формата : Base Media / Version 2
Интернет-тип носителя : video/mp4
Идентификатор кодека : mp42
Идентификатор кодека/Ссылка : http://www.apple.com/quicktime/download/standalone.html
Кодек : MPEG-4
Кодек : MPEG-4
Кодек/Используется в : mp4 m4v m4a m4b m4p 3gpp 3gp 3gpp2 3g2 k3g jpm jpx mqv ismv isma f4v
Размер файла : 179980213
Размер файла : 172 Мбайт
Размер файла : 172 Мбайт
Размер файла : 172 Мбайт
Размер файла : 172 Мбайт
Размер файла : 171,6 Мбайт
Продолжительность : 631320
Продолжительность : 10 м.
Продолжительность : 10 м. 31 с. 320 мс.
Продолжительность : 10 м.
Продолжительность : 00:10:31.320
Режим общего битрейта : VBR
Режим общего битрейта : Переменный
Общий поток : 2280684
Общий поток : 2281 Кбит/сек
Размер потока : 363603
Размер потока : 355 Кбайт (0%)
Размер потока : 355 Кбайт
Размер потока : 355 Кбайт
Размер потока : 355 Кбайт
Размер потока : 355,1 Кбайт
Размер потока : 355 Кбайт (0%)
Пропорции потока : 0.00202
HeaderSize : 363595
DataSize : 179616618
FooterSize : 0
IsStreamable : Yes
Дата кодирования : UTC 2011-10-03 12:45:40
Дата пометки : UTC 2011-10-03 12:45:40
Дата файла : UTC 2012-03-14 14:26:06.314
Дата файла (местная) : 2012-03-14 20:26:06.314
Дата изменения файла : UTC 2012-03-14 14:39:08.665
Дата изменения файла (местная) : 2012-03-14 20:39:08.665
gsst : 0
gstd : 631326
gssd : BD0419BC2HH1317795348162053
gshh : o-o.preferred.ams03g05.v7.lscache8.c.youtube.com

Видео
Кол-во : 205
Кол-во потоков такого типа : 1
Тип потока : Video
Тип потока : Видео
Идентификатор типа потока : 0
Inform : 2127 Кбит/сек, 1280*720 (16:9), в 25,000 кадров/сек, AVC ([email protected]) (CABAC / 1 Ref Frames)
Идентификатор : 1
Идентификатор : 1
Формат : AVC
Формат/Информация : Advanced Video Codec
Формат/Ссылка : http://developers.videolan.org/x264.html
Коммерческое название : AVC
Профиль формата : [email protected]
Настройки формата : CABAC / 1 Ref Frames
Параметр CABAC формата : Yes
Параметр CABAC формата : Да
Параметр ReFrames формата : 1
Параметр ReFrames формата : 1 кадр
Параметр GOP формата : M=1, N=30
Интернет-тип носителя : video/H264
Идентификатор кодека : avc1
Идентификатор кодека/Информация : Advanced Video Coding
Идентификатор кодека/Ссылка : http://www.apple.com/quicktime/download/standalone.html
Кодек : AVC
Кодек : AVC
Кодек/Семе
4731ba6462e86f1248297c82c4a5ea0549386ebbПути ненависти / Paths of Hate (Дамиан Ненов, мультфильм, короткометражка, 2010) [WEBRip 720р, Не требуется] Пути ненависти / Paths of Hate (Дамиан Ненов, мультфильм, короткометражка, 2010) [WEBRip 720р, Не требуется] " />

Аплоадер: Админ, дата: 14-03-2012, 20:48, торрент скачан: 359 раз

Понравилась раздача? Посмотрите эти:
  • Hurts / Somebody to Die For [2013, Pop, WEBRip]
  • Герои / Закаты алые [2012, Pop, WebRip]
  • Miranda Cosgrove / Dancing Crazy [2011, Pop, WEB-DLRip 720p]
  • Madcon / The Signal [2013, Hip-Hop, HDRip]
  • Ariana Grande - ft. Mac Miller / The Way [2013, Pop, WEB-DLRip 1080p]
  • Чемпионат Англии 2012-2013 / 18-й тур / Челси - Астон Вилла / Спорт 1 [23.1 ...
  • E-40 & Too Short Dump Truck Feat. Travis Porter/ Function Music [2012, Rap| ...
  • Катя Чехова & Vortex Involute / Жизнь [2008, House, Dram & Bass, WE ...
  • Джиган и Жанна Фриске / Ты рядом (Backstage) [2011, Рор, WEBRip]
  • Баста ft Гуф/ Моя Игра [2008, Rap, WebRip]
  • Matt Darey feat Leah / Hold Your Breath (KhoMha Remix) [2012, Remix/Dance/T ...
  • Лион / День за днем (Интро) [2012, Rap, WebRip]
  • Три банана (Михаил Ботов, Мультфильм, 1971) [SATRip, Не требуется]
  • Экстрасенсы ведут расследование // Сезон 3, Выпуск 2 (20) (Паранормальное ш ...
  • [NG] Мегазаводы: Уильямс F1 / Megafactories: Williams F1 (документальный, н ...
  • Очень страшное кино 3 / Scary Movie 3 (Дэвид Цукер, Комедия, 2003) [HDTVRip ...
  • Голый пистолет: из архивов полиции! / The Naked Gun: From the Files of Poli ...
  • Очень страшное кино 4 / Scary Movie 4 [Unrated] (Дэвид Цукер , Комедия, 200 ...
  • Рассмеши комика // 3 сезон, 2 выпуск (ТВ-Шоу, Юмор, 24/03/2012) [SATRip, Ор ...
  • Comedy Club / Лучшее (ТВ-шоу, юмор, 07.04.2012) [IPTVRip, Не требуется]
  • Guf / Hip-Hop All Stars 2012. Гуф Live. [2012, Rap,WebRip]
  • Қайрат Нұртас / Ол сен емес [2012, Pop, WebRip ]
  • Oxxxymiron и Луперкаль / Ultima Thule [Unofficial Video] [2012, Rap, WebRip ...
  • Tyga ft. Joe Moses/ Ratchets[2012, Rap, WebRip]
  • Птаха, Musa, Док / Миф [2012, Rap, WEBRip]
  • Информация
    Посетители, находящиеся в группе Гости, не могут оставлять комментарии к данной публикации.