вход на сайт

Имя пользователя :
Пароль :

Восстановление пароля Регистрация
Ронал-варвар / Ronal barbaren (Крестен Вестбьерг Андерсен, мультфильм, фэнтези, приключения, 2011) [BDRip-AVC, Профессиональный (дублированный)]
Рейтинг:
(голосов: 1)



[img]{THEME}/images/logopost.png[/img]



Ронал-варвар / Ronal Barbaren

Год выпуска: 2011
Страна: Дания
Производство: Nordisk Film A/S,Einstein Film,Nordisk Film- & TV-Fond
Жанр: мультфильм, фэнтези, приключения

Режиссёр: Крестен Вестбьерг Андерсен, Торбьорн Кристофферсен, Филип Эйнштейн Липски
В ролях: Бриджитт Нильсен, Ларс Миккельсен, Луис Ломбарди, Ди Снайдер, Бен Бледсо, Пирс Крейвенс, Лерке Винтер Андерсен, Ларс Бом, Пребен Кристенсен, Оле Эрнст

Перевод: Профессиональный (полное дублирование)
Субтитры: Отсутствуют

Описание: Ронал - самый нетипичный варвар на Земле. Его не интересуют ни битвы, ни завоевания, ни пиры. Больше всего на свете ему хочется, чтобы все просто оставили его в покое. Но судьба распоряжается иначе. Однажды злобный принц Вольказар, вождь враждебного племени, захватывает всех варваров в плен, чтобы принести их в жертву древним богам и обрести власть над миром. На свободе остается лишь Ронал. И теперь ему вместе с безалаберным бардом Алибером, мускулистой девой-воительницей Зандрой и эльфом-метросексуалом Эльриком предстоит пройти множество испытаний, чтобы освободить свой народ, обрести веру в себя и… найти любовь.

IMDB: 6.80 (527)
КиноПоиск: 6.487 (3 919)

Сэмпл

Качество: BDRip-AVC
Продолжительность: 01:29:18 час.


Релиз от:
Автор рипа: bOrOdaCh

Формат: MKV
Видео кодек: x264
Аудио кодек: AC3 Dolby Digital
Видео: 1 280x536 (2.40:1), 23.976 fps, x264 ~3 046 kbps avg, 0.185 bit/pixel
Аудио: 48 kHz, AC3 Dolby Digital, 3/2 (L,C,R,l,r) + LFE ch, ~448 kbps

Дата премьеры (мир): 29 сентября 2011
Дата премьеры (РФ): 1 декабря 2011, «Вольга»

MediaInfo ▼General
Unique ID : 243967049968141526174901959165909660782 (0xB78A583E1C8A6B23AC77CFBB85ABF46E)
Complete name : D:ФильмыРипыRonal.varvar.2011.HDRip-AVC.by Matroska.2,18.[mgt].mkv
Format : Matroska
Format version : Version 2
File size : 2.18 GiB
Duration : 1h 29mn
Overall bit rate : 3 495 Kbps
Encoded date : UTC 2012-02-09 03:11:30
Writing application : mkvmerge v5.0.1 (Es ist Sommer) built on Oct 24 2011 19:45:06
Writing library : libebml v1.2.2 + libmatroska v1.3.0

Video
ID : 1
Format : AVC
Format/Info : Advanced Video Codec
Format profile : [email protected]
Format settings, CABAC : Yes
Format settings, ReFrames : 10 frames
Codec ID : V_MPEG4/ISO/AVC
Duration : 1h 29mn
Bit rate : 3 046 Kbps
Width : 1 280 pixels
Height : 536 pixels
Display aspect ratio : 2.40:1
Frame rate : 23.976 fps
Color space : YUV
Chroma subsampling : 4:2:0
Bit depth : 8 bits
Scan type : Progressive
Bits/(Pixel*Frame) : 0.185
Stream size : 1.86 GiB (85%)
Writing library : x264 core 119 r2106 07efeb4
Encoding settings : cabac=1 / ref=10 / deblock=1:0:0 / analyse=0x3:0x133 / me=umh / subme=11 / psy=1 / psy_rd=1.00:0.10 / mixed_ref=1 / me_range=48 / chroma_me=1 / trellis=2 / 8x8dct=1 / cqm=0 / deadzone=21,11 / fast_pskip=0 / chroma_qp_offset=-3 / threads=6 / sliced_threads=0 / nr=0 / decimate=1 / interlaced=0 / bluray_compat=0 / constrained_intra=0 / bframes=10 / b_pyramid=2 / b_adapt=2 / b_bias=0 / direct=3 / weightb=1 / open_gop=0 / weightp=2 / keyint=250 / keyint_min=23 / scenecut=40 / intra_refresh=0 / rc_lookahead=60 / rc=2pass / mbtree=1 / bitrate=3046 / ratetol=1.0 / qcomp=0.60 / qpmin=0 / qpmax=69 / qpstep=4 / cplxblur=20.0 / qblur=0.5 / ip_ratio=1.40 / aq=1:1.00
Default : Yes
Forced : No
Color primaries : BT.709-5, BT.1361, IEC 61966-2-4, SMPTE RP177
Transfer characteristics : BT.709-5, BT.1361
Matrix coefficients : BT.709-5, BT.1361, IEC 61966-2-4 709, SMPTE RP177

Audio
ID : 2
Format : AC-3
Format/Info : Audio Coding 3
Mode extension : CM (complete main)
Codec ID : A_AC3
Duration : 1h 29mn
Bit rate mode : Constant
Bit rate : 448 Kbps
Channel(s) : 6 channels
Channel positions : Front: L C R, Side: L R, LFE
Sampling rate : 48.0 KHz
Bit depth : 16 bits
Compression mode : Lossy
Stream size : 286 MiB (13%)
Default : Yes
Forced : No

60db99b432c30fe9f281d923cfa521a8f4322da2Ронал-варвар / Ronal barbaren (Крестен Вестбьерг Андерсен, мультфильм, фэнтези, приключения, 2011) [BDRip-AVC, Профессиональный (дублированный)] Ронал-варвар / Ronal barbaren (Крестен Вестбьерг Андерсен, мультфильм, фэнтези, приключения, 2011) [BDRip-AVC, Профессиональный (дублированный)] " />

Аплоадер: Админ, дата: 11-02-2012, 22:01, торрент скачан: 359 раз

Понравилась раздача? Посмотрите эти:
  • [3D] Ронал-варвар / Ronal Barbaren (Крестен Вестбьерг Андерсен/ мультфильм, ...
  • Ронал-варвар / Ronal Barbaren (Крестен Вестбьерг Андерсен, Торбьорн Кристоф ...
  • Ронал-Варвар / Ronal the Barbarian (Крестен Вестбьерг Андерсен, Мультфильм, ...
  • Кориолан / Coriolanus (Рэйф Файнс, триллер, драма, 2011) [BDRip-AVC, Дубли ...
  • Меланхолия / Melancholia (Ларс фон Триер / Lars von Trier, фантастика, драм ...
  • Кунг-фу Панда 2 / Kung Fu Panda 2 (Дженнифер Ю, мультфильм, боевик, комеди ...
  • Ронал-варвар / Ronal barbaren (Крестен Вестбьерг Андерсен, мультфильм, фэнт ...
  • Ронал-варвар / Ronal barbaren (Крестен Вестбьерг Андерсен, мультфильм, фэнт ...
  • Ронал-варвар / Ronal barbaren (Крестен Вестбьерг Андерсен, мультфильм, фэнт ...
  • Двигай время! / Los ilusionautas (Эдуардо Шульдт, Мультфильм, фэнтези, прик ...
  • [3D]Конан-варвар в 3Д / Conan the Barbarian 3D (Маркус Ниспел / Marcus Nisp ...
  • Конан-варвар / Conan the Barbarian (Маркус Ниспел, фэнтези, боевик, приключ ...
  • Мой парень - ангел (Вера Сторожева, фэнтези, мелодрама, комедия, приключени ...
  • Учитель на замену / Detachment (Тони Кэй, драма, 2011) [BDRip 720р, Професс ...
  • Джок / Jock (Дункан МакНили, мультфильм, комедия, приключения, семейный, 20 ...
  • Футбольный клуб / Чемпионат Европы 2012 / НТВ+ [Футбол, 08.06.2012, HDTVRip ...
  • Чемпионат Европы 2012 / Группа C / 1-й тур / Ирландия — Хорватия / Спорт 1 ...
  • Mylene Farmer / Du Temps [2011, Pop, HDTVRip]
  • Mylene Farmer / Bleu Noir [2011, Pop, HDTVRip]
  • Ронал-варвар / Ronal barbaren (Крестен Вестбьерг Андерсен, мультфильм, фэнт ...
  • Ронал-варвар / Ronal Barbaren (Крестен Вестбьерг Андерсен, Торбьорн Кристоф ...
  • [3D] Ронал-варвар / Ronal Barbaren (Крестен Вестбьерг Андерсен, Торбьорн Кр ...
  • Ронал-варвар / Ronal barbaren (Крестен Вестбьерг Андерсен, мультфильм, фэнт ...
  • Ронал-варвар / Ronal barbaren (Крестен Вестбьерг Андерсен, мультфильм, фэнт ...
  • Ронал-варвар / Ronal barbaren (Крестен Вестбьерг Андерсен, мультфильм, фэнт ...
  • Информация
    Посетители, находящиеся в группе Гости, не могут оставлять комментарии к данной публикации.