вход на сайт

Имя пользователя :
Пароль :

Восстановление пароля Регистрация
Дикие собаки / Wild Dogs (Кэтрин Хикс, короткометражный анимационный фильм, 2009) [HDTVRip-AVC, Не требуется]
Рейтинг:
(голосов: 1)



[img]{THEME}/images/logopost.png[/img]



Дикие собаки / Wild Dogs

Год выпуска: 2009
Страна: США
Производство: Animated short film
Жанр: короткометражный анимационный фильм

Режиссёр: Кэтрин Хикс
В ролях: Дикие Собаки

Перевод: Не требуется
Субтитры: Нет

Описание: "Дикие собаки"- короткометражная анимация созданная Кэтрин Хикс (Catherine Hicks) в Колледже Ringling College of Art and Design.
Мультфильм был в числе участников фестиваля компьютерной мультипликации SIGGRAPH 2009.

IMDB: рейтингНет
КиноПоиск: рейтингНет

Качество: HDTVRip-AVC
Продолжительность: 00:02:35

Формат: MP4
Видео кодек: AVC
Аудио кодек: AAC
Видео: 640x360 (16:9), Advanced Video Codec, 24 fps, ~996 kbps avg, 0.180 bit/pixel
Аудио: Advanced Audio Codec - LC, 44.1 kHz, 2ch, ~125 kbps avg

Отчет от MediaInfo:

Общее
Полное имя : C:Дикие собакиWild Dogs.2009.HDTVRip-AVC.mp4
Формат : MPEG-4
Профиль формата : Base Media
Идентификатор кодека : isom
Размер файла : 20,9 Мбайт
Продолжительность : 2 м. 35 с.
Общий поток : 1125 Кбит/сек
Дата кодирования : UTC 2011-09-15 09:27:55
Дата пометки : UTC 2011-09-15 09:27:55

Видео
Идентификатор : 1
Формат : AVC
Формат/Информация : Advanced Video Codec
Профиль формата : [email protected]
Параметр CABAC формата : Да
Параметр ReFrames формата : 4 кадра
Идентификатор кодека : avc1
Идентификатор кодека/Информация : Advanced Video Coding
Продолжительность : 2 м. 35 с.
Битрейт : 996 Кбит/сек
Максимальный битрейт : 2364 Кбит/сек
Ширина : 640 пикселей
Высота : 360 пикселей
Соотношение сторон : 16:9
Режим частоты кадров : Постоянный
Частота кадров : 24,000 кадра/сек
Цветовое пространство : YUV
Субдискретизация насыщенности : 4:2:0
Битовая глубина : 8 бит
Тип развёртки : Прогрессивная
Бит/(Пиксели*Кадры) : 0.180
Размер потока : 18,5 Мбайт (89%)
Библиотека кодирования : x264 core 116 r2044 392e762
Настройки программы : cabac=1 / ref=4 / deblock=1:1:1 / analyse=0x3:0x113 / me=umh / subme=9 / psy=1 / psy_rd=0.40:0.00 / mixed_ref=0 / me_range=18 / chroma_me=0 / trellis=0 / 8x8dct=1 / cqm=0 / deadzone=21,11 / fast_pskip=1 / chroma_qp_offset=-2 / threads=3 / sliced_threads=0 / nr=0 / decimate=1 / interlaced=0 / bluray_compat=0 / constrained_intra=0 / bframes=6 / b_pyramid=2 / b_adapt=2 / b_bias=0 / direct=3 / weightb=1 / open_gop=0 / weightp=0 / keyint=240 / keyint_min=25 / scenecut=40 / intra_refresh=0 / rc_lookahead=90 / rc=crf / mbtree=1 / crf=16.0 / qcomp=0.60 / qpmin=10 / qpmax=69 / qpstep=4 / ip_ratio=1.60 / aq=1:0.70
Дата кодирования : UTC 2011-09-15 09:27:55
Дата пометки : UTC 2011-09-15 09:27:55

Аудио
Идентификатор : 2
Формат : AAC
Формат/Информация : Advanced Audio Codec
Профиль формата : LC
Идентификатор кодека : 40
Продолжительность : 2 м. 35 с.
Вид битрейта : Переменный
Битрейт : 125 Кбит/сек
Максимальный битрейт : 146 Кбит/сек
Каналы : 2 канала
Расположение каналов : Front: L R
Частота : 44,1 КГц
Метод сжатия : С потерями
Размер потока : 2,32 Мбайт (11%)
Дата кодирования : UTC 2011-09-15 09:27:55
Дата пометки : UTC 2011-09-15 09:27:55




6ab71f9454092bed507908a7e51256f5128d4bb0Дикие собаки / Wild Dogs (Кэтрин Хикс, короткометражный анимационный фильм, 2009) [HDTVRip-AVC, Не требуется] Дикие собаки / Wild Dogs (Кэтрин Хикс, короткометражный анимационный фильм, 2009) [HDTVRip-AVC, Не требуется] " />

Аплоадер: Админ, дата: 8-01-2012, 20:19, торрент скачан: 359 раз

Понравилась раздача? Посмотрите эти:
  • After School Red / In The Night Sky [2011, KPop, Master]
  • Герои / Закаты алые [2012, Pop, WebRip]
  • Miranda Cosgrove / Dancing Crazy [2011, Pop, WEB-DLRip 720p]
  • Shontelle / Say Hello To Goodbye [2011, Country, Master]
  • Madcon / The Signal [2013, Hip-Hop, HDRip]
  • Avril Lavigne / Smile [2011, Pop, HDRip]
  • Christina Aguilera / Not Myself Tonight [2010, Dance, Pop, Master]
  • Ariana Grande - ft. Mac Miller / The Way [2013, Pop, WEB-DLRip 1080p]
  • [NG] Война львов / Lion Battle Zone (документальный, 2011) [HDTVRip-AVC, Пр ...
  • Дикий запад. Кино и реальность / The Wild And The West (документальный, 200 ...
  • Даю год / I Give It a Year (Дэн Мазер, Мелодрама, комедия, 2013) [HDTVRip 1 ...
  • Чемпионат Англии 2012-2013 / 25-й тур / Обзор / Суббота / BBC Sport [2013 г ...
  • Чемпионат Англии 2012-2013 / 25-й тур / Обзор / Воскресенье / BBC Sport [20 ...
  • Соломенные псы / Straw Dogs (Род Лури, Триллер, драма, криминал , 2011) [BD ...
  • Переростки / The Inbetweeners (Бен Палмер, Комедия, 2011) [BDRip-AVC, Профе ...
  • Котенок с улицы Лизюкова (Вячеслав Котеночкин, Мультфильм, 1988) [DVDRip-AV ...
  • Скрат: Потерянный орех / Scrat: Gone Nutty (Карлос Салдана, короткометражка ...
  • Чемпионат Мира 2014 | Отборочный турнир | Европа | World Cup Qualifiers - H ...
  • Чемпионат Англии 2012-2013 / 18-й тур / Челси - Астон Вилла / Спорт 1 [23.1 ...
  • Чемпионат Англии 2012-2013 / 19-й тур / Обзор / Среда / BBC Sport [2012 г., ...
  • Нонито Донэйр - Хорхе Арсе / Nonito Donaire vs Jorge Arce [Бокс, 15.12.2012 ...
  • Кубок Англии 2012-2013 / 3-й раунд / Обзор / Суббота / ITV 1 HD [2013 г., ф ...
  • Кубок Англии 2012-2013 / 3-й раунд / Обзор / Воскресенье / ITV Sport [2013 ...
  • Ван Пис / One Piece // Сезон 15, Эпизод 552 (2012) [WebRip, любительская ( ...
  • Экзоиды / Exoids (Аристоменис Тсирбас, мультфильм, короткометражка, фантаст ...
  • Информация
    Посетители, находящиеся в группе Гости, не могут оставлять комментарии к данной публикации.