вход на сайт

Имя пользователя :
Пароль :

Восстановление пароля Регистрация
Золушка / Cinderella (Клайд Джероними, Уилфред Джексон, мультфильм, мюзикл, 1950)[HDTVRip-AVC, DUB + 2 MVO + AVO + SVO + Original + SUB (rus, eng)]
Рейтинг:
(голосов: 1)



[img]{THEME}/images/logopost.png[/img]



«Золушка / Cinderella»

«The greatest love story ever told.»

Год выпуска: 1950
Страна: США
Производство: Walt Disney Productions
Жанр: мультфильм, мюзикл, фэнтези, мелодрама, семейный

Режиссёр: Клайд Джероними, Уилфред Джексон, Хэмильтон Ласки
В ролях: Илен Вудс, Элинор Одли, Верна Фелтон, Рода Уильямс, Джеймс МакДональд, Луис Ван Рутен, Дон Барклай, Люсиль Блисс, Мэрион Дарлингтон, Майк Дуглас

Перевод: Профессиональный (полное дублирование) +Профессиональный (многоголосый закадровый) +Авторский (одноголосый закадровый) +Оригинал
Озвучка: Дубляж (Татьяна Родионова, Маргарита Струнова, Светлана Харлап, Наталья Ромашенко, Сергей Чурбаков), Авторский (Алексей Михалёв)
Субтитры: Sub [RUS, ENG]

Описание
Золушка — бедная сиротка, которую злая мачеха и ее вздорные дочки, заставляют тяжко работать с утра до ночи. Она так хочет попасть на королевский бал. На помощь бедняжке приходит Добрая фея! Силой волшебства она наделяет Золушку роскошной каретой, чудесным платьем и необыкновенными хрустальными башмачками.

» IMDB-рейтинг:7.30 (32 905)

» КиноПоиск-рейтинг:7.941 (11 880)

Доп. информация
Премьеры ▼премьера (мир)15 февраля 1950

Рейтинг MPAA ▼
рейтинг G нет возрастных ограничений
MediaInfo ▼TextОбщее
Уникальный идентификатор : 198005658449380668902772489435269508634 (0x94F680AF69844818BF36099585D32E1A)
Полное имя : D:DownloadsЗолушка.HDTVRip-AVC.720p.mkv
Формат : Matroska
Версия формата : Version 2
Размер файла : 2,13 Гбайт
Продолжительность : 1 ч. 15 м.
Общий поток : 4056 Кбит/сек
Название фильма : Zolushka.1950.HDTVRip-AVC.720p by pan29
Дата кодирования : UTC 2011-01-03 08:12:51
Программа кодирования : mkvmerge v3.2.0 (Beginnings) built on Feb 12 2010 16:46:17
Библиотека кодирования : libebml v0.7.9 + libmatroska v0.8.1

Видео
Идентификатор : 1
Формат : AVC
Формат/Информация : Advanced Video Codec
Профиль формата : [email protected]
Параметр CABAC формата : Да
Параметр ReFrames формата : 11 кадров
Идентификатор кодека : V_MPEG4/ISO/AVC
Продолжительность : 1 ч. 15 м.
Битрейт : 1877 Кбит/сек
Ширина : 960 пикселей
Высота : 720 пикселей
Соотношение сторон : 4:3
Частота кадров : 23,976 кадра/сек
Цветовое пространство : YUV
Субдискретизация насыщенности : 4:2:0
Битовая глубина : 8 бит
Тип развёртки : Прогрессивная
Бит/(Пиксели*Кадры) : 0.113
Размер потока : 966 Мбайт (44%)
Заголовок : Zolushka.1950.HDTVRip-AVC.720p
Библиотека кодирования : x264 core 112 r1834 a51816a
Настройки программы : cabac=1 / ref=11 / deblock=1:-1:0 / analyse=0x3:0x113 / me=umh / subme=9 / psy=1 / psy_rd=0.40:0.00 / mixed_ref=1 / me_range=24 / chroma_me=1 / trellis=2 / 8x8dct=1 / cqm=0 / deadzone=21,11 / fast_pskip=0 / chroma_qp_offset=-2 / threads=3 / sliced_threads=0 / nr=0 / decimate=0 / interlaced=0 / constrained_intra=0 / bframes=10 / b_pyramid=2 / b_adapt=2 / b_bias=0 / direct=3 / weightb=1 / open_gop=0 / weightp=2 / keyint=250 / keyint_min=23 / scenecut=40 / intra_refresh=0 / rc_lookahead=60 / rc=2pass / mbtree=1 / bitrate=1877 / ratetol=1.0 / qcomp=0.70 / qpmin=0 / qpmax=51 / qpstep=4 / cplxblur=20.0 / qblur=0.5 / vbv_maxrate=50000 / vbv_bufsize=50000 / ip_ratio=1.40 / aq=1:0.60 / nal_hrd=none
Язык : English
Default : Нет
Forced : Нет

Аудио #1
Идентификатор : 2
Формат : AC-3
Формат/Информация : Audio Coding 3
Расширение режима : CM (complete main)
Идентификатор кодека : A_AC3
Продолжительность : 1 ч. 15 м.
Вид битрейта : Постоянный
Битрейт : 448 Кбит/сек
Каналы : 6 каналов
Расположение каналов : Front: L C R, Side: L R, LFE
Частота : 48,0 КГц
Битовая глубина : 16 бит
Метод сжатия : С потерями
Размер потока : 241 Мбайт (11%)
Заголовок : Dub
Язык : Russian
Default : Да
Forced : Нет

Аудио #2
Идентификатор : 3
Формат : AC-3
Формат/Информация : Audio Coding 3
Расширение режима : CM (complete main)
Идентификатор кодека : A_AC3
Продолжительность : 1 ч. 15 м.
Вид битрейта : Посто
a4dbe5452a8696cc05abf22cbe5db81a98f9301bЗолушка / Cinderella (Клайд Джероними, Уилфред Джексон, мультфильм, мюзикл, 1950)[HDTVRip-AVC, DUB + 2 MVO + AVO + SVO + Original + SUB (rus, eng)] Золушка / Cinderella (Клайд Джероними, Уилфред Джексон, мультфильм, мюзикл, 1950)[HDTVRip-AVC, DUB + 2 MVO + AVO + SVO + Original + SUB (rus, eng)] " />

Аплоадер: Админ, дата: 8-01-2012, 14:04, торрент скачан: 359 раз

Понравилась раздача? Посмотрите эти:
  • [NG] Комета века / Comet of the century (документальный, 2013) [HDTVRip-AVC ...
  • Больше чем мёд / More Than Honey (документальный, 2012) [BDRip 720p, Профес ...
  • Голливудский мусор / Garbage (Филипп Волкен, драма, комедия, 2013) [HDTVRip ...
  • [NG] Война львов / Lion Battle Zone (документальный, 2011) [HDTVRip-AVC, Пр ...
  • Дикий запад. Кино и реальность / The Wild And The West (документальный, 200 ...
  • Огонь Кристиана Лубутена 3D / FEU: Crazy Horse Paris (Бруно Халлин, Докумен ...
  • Суррогат / The Sessions (Бен Луин, Драма, 2012) [BDRip-AVC, Профессиональны ...
  • Чемпионат Англии 2012-2013 / 25-й тур / Обзор / Суббота / BBC Sport [2013 г ...
  • Образец 47 / Marvel One-Shot: Item 47 (Луис Д’Эспозито, короткометражка, фа ...
  • Котенок с улицы Лизюкова (Вячеслав Котеночкин, Мультфильм, 1988) [DVDRip-AV ...
  • Питер Пэн / Peter Pan (Клайд Джероними, мультфильм, 1953) [DVDRip-AVC, Проф ...
  • Сид, инструкция по выживанию / Surviving Sid (Гален Т. Чу / Galen T. Chu, К ...
  • Безумные мелодии: Кажется я видел котика / Looney Tunes: I Tawt I Taw а Pud ...
  • Скрат: Потерянный орех / Scrat: Gone Nutty (Карлос Салдана, короткометражка ...
  • Заражение / Contagion (Стивен Содерберг, Фантастика, 2011) [BDRip 1080p, Пр ...
  • Лоракс: Серенада / The Lorax: Serenade (Кайл Балда, мультфильм, комедия, му ...
  • Большой отрыв БОБа / B.O.B.s Big Break (Роберт Портер, короткометражка, ан ...
  • [NG] Гитлеровские лагеря смерти / Hitlers G.I. Death Camp (документальный, ...
  • Сейчас самое время / Now Is Good (Ол Паркер, Мелодрама, 2012) [BDRip-AVC, П ...
  • Золушка / Cinderella (Клайд Джероними, Уилфред Джексон, Хэмильтон Ласки, му ...
  • Информация
    Посетители, находящиеся в группе Гости, не могут оставлять комментарии к данной публикации.