вход на сайт

Имя пользователя :
Пароль :

Восстановление пароля Регистрация
Кунг-фу Панда 2 / Kung Fu Panda 2 (Дженнифер Ю, мультфильм, боевик, комедия, приключения, семейный, 2011) [BDRip-AVC, Профессиональный (дублированный) + Оригинал]
Рейтинг:
(голосов: 1)



[img]{THEME}/images/logopost.png[/img]



Кунг-фу Панда 2 / Kung Fu Panda 2
«Пандамания продолжается»

Год выпуска: 2011
Страна: США
Производство: DreamWorks Animation
Жанр: Мультфильм, боевик, комедия, приключения, семейный

Режиссёр: Дженнифер Ю / Jennifer Yuh
Роли озвучивали: Михаил Галустян / Po, Ольга Зубкова / Tigress, Александр Хотченков / Shifu, Василий Дахненко / Shen, Диомид Виноградов / Monkey, Олег Куценко / Mantis, Александр Гаврилин / Crane, Олег Форостенко / Mr. Ping, Пётр Иващенко / Master Ox, Дмитрий Поляновский / Master Croc

Перевод: Профессиональный (дублированный) | Лицензия + Оригинал
Субтитры: Русские, Английские

Описание: Панда По наконец-то исполнит свою мечту, станет Воином Дракона и со своими друзьями и мастерами кунг-фу - Неистовой Пятеркой - защитит Великую Долину от страшного злодея и его легиона...



Дата премьеры (мир): 22 мая 2011
Дата премьеры (РФ): 26 мая 2011, «Централ Партнершип»
Качество: BDRip-AVC [HDChina]
Продолжительность: 01:30:23

Автор рипа: Vaippp

Формат: MKV
Видео кодек: AVC
Аудио кодек: AC3
Видео: 1196 x 508; 23.976 fps; 2560 kbps; 0.176 bit/pixel
Аудио#1: 48 kHz, AC3 Dolby Digital, 6 ch, ~448 kbps avg - Профессиональный (полное дублирование) - язык русский
Аудио#2: 48 kHz, AC3 Dolby Digital, 6 ch, ~448 kbps avg - Оригинал - язык английский
MediaInfo ▼TextGeneral
Unique ID : 180798707541683651557896975764141821499 (0x8804908181859656836B8AD26A42CE3B)
Complete name : I:OtherKung.fu.Panda.2.2011.DUAL.BDRip-AVC.AC3.-HQ-ViDEO.mkv
Format : Matroska
Format version : Version 2
File size : 2.18 GiB
Duration : 1h 30mn
Overall bit rate : 3 457 Kbps
Movie name : Kung Fu Panda 2 (2011) - HQ-ViDEO
Encoded date : UTC 2011-12-15 20:46:53
Writing application : mkvmerge v5.1.0 (And so it goes) built on Nov 28 2011 23:58:28
Writing library : libebml v1.2.3 + libmatroska v1.3.0
Video
ID : 1
Format : AVC
Format/Info : Advanced Video Codec
Format profile : [email protected]
Format settings, CABAC : Yes
Format settings, ReFrames : 12 frames
Codec ID : V_MPEG4/ISO/AVC
Duration : 1h 30mn
Bit rate : 2 560 Kbps
Width : 1 196 pixels
Height : 508 pixels
Display aspect ratio : 2.35:1
Frame rate : 23.976 fps
Color space : YUV
Chroma subsampling : 4:2:0
Bit depth : 8 bits
Scan type : Progressive
Bits/(Pixel*Frame) : 0.176
Stream size : 1.57 GiB (72%)
Title : Vaippp
Writing library : x264 core 118 r2085 8a62835
Encoding settings : cabac=1 / ref=12 / deblock=1:-1:-1 / analyse=0x3:0x113 / me=umh / subme=10 / psy=1 / psy_rd=0.80:0.05 / mixed_ref=1 / me_range=56 / chroma_me=1 / trellis=2 / 8x8dct=1 / cqm=0 / deadzone=21,11 / fast_pskip=0 / chroma_qp_offset=-3 / threads=12 / sliced_threads=0 / nr=0 / decimate=0 / interlaced=0 / bluray_compat=0 / constrained_intra=0 / bframes=10 / b_pyramid=2 / b_adapt=2 / b_bias=0 / direct=3 / weightb=1 / open_gop=0 / weightp=2 / keyint=250 / keyint_min=23 / scenecut=40 / intra_refresh=0 / rc_lookahead=40 / rc=2pass / mbtree=0 / bitrate=2560 / ratetol=1.0 / qcomp=0.60 / qpmin=0 / qpmax=65 / qpstep=4 / cplxblur=20.0 / qblur=0.5 / vbv_maxrate=40000 / vbv_bufsize=30000 / nal_hrd=none / ip_ratio=1.30 / pb_ratio=1.35 / aq=2:0.70 / zones=116828,130043,b=0.5
Language : English
Default : Yes
Forced : No
Matrix coefficients : BT.709-5, BT.1361, IEC 61966-2-4 709, SMPTE RP177
Audio #1
ID : 2
Format : AC-3
Format/Info : Audio Coding 3
Mode extension : CM (complete main)
Codec ID : A_AC3
Duration : 1h 30mn
Bit rate mode : Constant
Bit rate : 448 Kbps
Channel(s) : 6 channels
Channel positions : Front: L C R, Side: L R, LFE
Sampling rate : 48.0 KHz
Bit depth : 16 bits
Compression mode : Lossy
Stream size : 290 MiB (13%)
Title : DUB @ R5
Language : Russian
Default : Yes
Forced : Yes
Audio #2
ID : 3
Format : AC-3
Format/Info : Audio Coding 3
Mode extension : CM (complete main)
Codec ID : A_AC3
Duration : 1h 30mn
Bit rate mode : Constant
Bit rate : 448 Kbps
Channel(s) : 6 channels
Channel positions : Front: L C R, Side: L R, LFE
Sampling rate : 48.0 KHz
Bit depth : 16 bits
Compressi
c24087808e2acb8ba0274c9e16dbcd86aa5cfd2bКунг-фу Панда 2 / Kung Fu Panda 2 (Дженнифер Ю, мультфильм, боевик, комедия, приключения, семейный, 2011) [BDRip-AVC, Профессиональный (дублированный) + Оригинал] Кунг-фу Панда 2 / Kung Fu Panda 2 (Дженнифер Ю, мультфильм, боевик, комедия, приключения, семейный, 2011) [BDRip-AVC, Профессиональный (дублированный) + Оригинал] " />

Аплоадер: Админ, дата: 16-12-2011, 21:11, торрент скачан: 359 раз

Понравилась раздача? Посмотрите эти:
  • [EN]Кунг-фу Панда / Kung Fu Panda (боевик, комедия, семейный, мультфильм, 2 ...
  • Кунг-фу Панда 2 / Kung Fu Panda 2 (Дженнифер Ю,мультфильм,боевик,комедия,пр ...
  • Кунг-фу Панда / Kung Fu Panda (Марк Осборн, Джон Стивенсон, мультфильм, бое ...
  • Кунг-фу Панда / Kung Fu Panda (Марк Осборн, Джон Стивенсон, мультфильм, бое ...
  • Кунг-фу Панда 2 / Kung Fu Panda 2 (Дженнифер Ю / Jennifer Yuh, мультфильм, ...
  • [3D] Кунг-фу Панда 2 3Д / Kung Fu Panda 2 3D (Дженнифер Ю / Jennifer Yuh, м ...
  • [3D] Кунг-фу Панда 2 / Kung Fu Panda 2 (Дженнифер Ю, мультфильм, боевик, ко ...
  • Кунг Фу Панда / Kung Fu Panda (Марк Осборн, Джон Стивенсон, Боевик, комедия ...
  • Кунг-фу Панда 2 / Kung Fu Panda 2 (Дженнифер Ю, мультфильм, боевик, комедия ...
  • Кунг-фу Панда 2 / Kung Fu Panda 2 (Дженнифер Ю, мультфильм, боевик, комедия ...
  • (2008) Hans Zimmer, John Powell / Kung Fu Panda / Кунг-фу Панда (OST) [Mp3, ...
  • (2011) John Powell, Hans Zimmer / Кунг-фу Панда 2 / Kung Fu Panda 2 (Score) ...
  • Кунг-фу Панда / Kung Fu Panda (Марк Осборн, боевик, комедия, семейный, муль ...
  • [EN]Кунг-Фу Панда/ Kung Fu Panda/(Марк Осборн, Джон Стивенсон, 2008, комеди ...
  • Кунг-фу Панда / Kung Fu Panda (Марк Осборн, Джон Стивенсон, комедия, семейн ...
  • Кунг-фу Панда / Kung Fu Panda 1901x808(Марк Осборн, Джон Стивенсон, мультфи ...
  • Кунг-Фу Панда/ Kung Fu Panda/(Марк Осборн, Джон Стивенсон, 2008, боевик, ко ...
  • Kung Fu Panda 2 / Кунг-фу панда 2 (2011) ENG [Java]
  • Кунг-фу Панда 2 / Kung Fu Panda 2 (Дженнифер Ю , мультфильм, боевик, комеди ...
  • Кунг-фу Панда 2 / Kung Fu Panda 2 (Дженнифер Ю, мультфильм, боевик, комеди ...
  • Кунг-фу Панда 2 / Kung Fu Panda 2 (Дженнифер Ю,мультфильм,боевик,комедия,пр ...
  • Кунг-фу Панда 2 / Kung Fu Panda 2 (Дженнифер Ю / Jennifer Yuh, мультфильм, ...
  • Кунг-фу Панда 2 / Kung Fu Panda 2 (Дженнифер Ю, мультфильм, боевик, комедия ...
  • [3D] Кунг-фу Панда 2 3D / Kung Fu Panda 2 3D (Дженнифер Ю, Мультфильм, 2011 ...
  • Панда и ёж / Panda and Hedgehog // Сезон 1, Эпизоды с 1 по 2 (из 16) (2012) ...
  • Информация
    Посетители, находящиеся в группе Гости, не могут оставлять комментарии к данной публикации.