вход на сайт

Имя пользователя :
Пароль :

Восстановление пароля Регистрация
Приготовление и начало / Prep And Landing (Кевин Детерс, мультфильм, короткометражка, фэнтези, семейный, 2009) [HDTVRip 720p, профессиональный (многоголосый закадровый)]
Рейтинг:
(голосов: 1)



[img]{THEME}/images/logopost.png[/img]



Приготовление и начало / Prep And Landing

Год выпуска: 2009
Страна: США
Производство: Walt Disney Pictures
Жанр: мультфильм, короткометражка, фэнтези, семейный

Режиссёр: Кевин Детерс
В ролях: Дмитрий Дюжев, Михаил Галустян, Анна Седокова, Вилле Хаапасало, Светлана Ходченкова, Дмитрий Шаракоис, Дмитрий Хрусталев, Виктор Васильев, Валентин Смирнитский, Людмила Артемьева

Перевод: профессиональный (многоголосый закадровый, Первый канал) + Украинский (любительский, двухголосый закадровый) + оригинал
Субтитры:нет

Описание
В канун Рождества эльф Уэйн получает нового партнера новобранца по имени Лэнни, после того, как его предыдущий партнер получил повышение, о котором мечтал. Лэнни должен помочь Уэйну в приготовлении к празднования Рождества, к прилету Санта Клауса и высадке элитных подразделений эльфов…



"MediaInfo" ▼TextGeneral
Complete name : E:MoviesPrep And Landing.rus.eng.ukr.hdtv.ABC.mkv
Format : Matroska
File size : 646 MiB
Duration : 21mn 16s
Overall bit rate : 4 248 Kbps
Encoded date : UTC 2011-01-02 16:34:56
Writing application : mkvmerge v3.1.0 (Happy up here) built on Jan 20 2010 22:42:11
Writing library : libebml v0.7.9 + libmatroska v0.8.1
Video #1
ID : 1
Format : AVC
Format/Info : Advanced Video Codec
Format profile : [email protected]
Format settings, CABAC : Yes
Format settings, ReFrames : 3 frames
Muxing mode : Container [email protected]
Codec ID : V_MPEG4/ISO/AVC
Duration : 21mn 15s
Bit rate : 3 203 Kbps
Nominal bit rate : 3 287 Kbps
Width : 1 280 pixels
Height : 720 pixels
Display aspect ratio : 16:9
Frame rate : 23.976 fps
Resolution : 24 bits
Colorimetry : 4:2:0
Scan type : Progressive
Bits/(Pixel*Frame) : 0.145
Stream size : 487 MiB (75%)
Writing library : x264 core 70 r1204 3b047a2
Encoding settings : cabac=1 / ref=3 / deblock=1:0:0 / analyse=0x3:0x113 / me=hex / subme=6 / psy=1 / psy_rd=1.0:0.0 / mixed_ref=1 / me_range=16 / chroma_me=1 / trellis=1 / 8x8dct=1 / cqm=0 / deadzone=21,11 / chroma_qp_offset=-2 / threads=12 / nr=0 / decimate=1 / mbaff=0 / bframes=3 / b_pyramid=1 / b_adapt=1 / b_bias=0 / direct=1 / wpredb=1 / keyint=240 / keyint_min=24 / scenecut=40 / rc=2pass / mbtree=0 / bitrate=3287 / ratetol=1.0 / qcomp=0.60 / qpmin=10 / qpmax=51 / qpstep=4 / cplxblur=20.0 / qblur=0.5 / ip_ratio=1.40 / pb_ratio=1.30 / aq=1:1.00
Language : English
Audio #2
ID : 2
Format : AC-3
Format/Info : Audio Coding 3
Codec ID : A_AC3
Duration : 21mn 16s
Bit rate mode : Constant
Bit rate : 192 Kbps
Channel(s) : 2 channels
Channel positions : L R
Sampling rate : 48.0 KHz
Stream size : 29.2 MiB (5%)
Language : Russian
Audio #3
ID : 3
Format : AC-3
Format/Info : Audio Coding 3
Codec ID : A_AC3
Duration : 21mn 16s
Bit rate mode : Constant
Bit rate : 384 Kbps
Channel(s) : 6 channels
Channel positions : Front: L C R, Surround: L R, LFE
Sampling rate : 48.
9431851a057e6f04e2b6a24f52fb6e3c6535c9d4Приготовление и начало / Prep And Landing (Кевин Детерс, мультфильм, короткометражка, фэнтези, семейный, 2009) [HDTVRip 720p, профессиональный (многоголосый закадровый)] Приготовление и начало / Prep And Landing (Кевин Детерс, мультфильм, короткометражка, фэнтези, семейный, 2009) [HDTVRip 720p, профессиональный (многоголосый закадровый)] " />

Аплоадер: Админ, дата: 14-12-2011, 13:05, торрент скачан: 359 раз

Понравилась раздача? Посмотрите эти:
  • Смерть на похоронах / Death at a Funeral (Нил ЛаБут, комедия, 2010) [BDRip ...
  • Водитель / The Driver (Уолтер Хилл, Боевик, триллер, драма, криминал, 1978) ...
  • Дитя человеческое / Children of Men (Альфонсо Куарон, фантастика, триллер, ...
  • Только ты / Only You (Норман Джуисон. мелодрама, комедия. 1994) [HDTVRip, П ...
  • Вальгалла: Сага о викинге / Valhalla Rising (Николас Виндинг Рёфн, боевик, ...
  • Роб Рой / Rob Roy (Майкл Кейтон-Джонс, боевик, драма, мелодрама, 1995) [BDR ...
  • Левша (Иван Иванов-Вано, мультфильм, сказка, 1964 г.) [DVDRip-AVC, Оригинал ...
  • На задней парте / 4 выпуска из (4) (Угаров Валерий Михайлович, короткометра ...
  • Корпорация Монстров / Monsters, Inc. (Дэвид Сильверман, Ли Ункриш, Мультфил ...
  • Геркулес / Hercules (Рон Клементс, Джон Маскер, Мультфильм, 1997 г.)[HDTVRi ...
  • Один Дома / Home Alone (Крис Коламбус, комедия, приключения, семейный, 1990 ...
  • Чаббчаббы спасают Рождество / The Chubbchubbs Save Xmas (Коуди Камерон, мул ...
  • Далеко-далеко / Far and Away (Рон Ховард, драма, мелодрама, приключения, ве ...
  • Скуби-Ду 3: Тайна начинается / Scooby-Doo! The Mystery Begins (Брайан Леван ...
  • Зелёная миля / The Green Mile (Фрэнк Дарабонт , драма, 1999) [BDRip 1080p, ...
  • Суперсооружения: Супертрубопровод / Megastructures: Super Pipeline (Докумен ...
  • Чемпионат Европы 2012 / 1/2 финала / Португалия - Испания / Спорт 1 HD [Фу ...
  • Чемпионат Европы 2012 / 1/2 финала / Германия - Италия / Спорт 1 HD [Футбо ...
  • Формула 1. Сезон 2012. Этап 13 из 20. Гран-При Италии, Квалификация. [2012 ...
  • Mylene Farmer / Du Temps [2011, Pop, HDTVRip]
  • Mylene Farmer / Bleu Noir [2011, Pop, HDTVRip]
  • Приготовление и начало / Prep & Landing (Кевин Детерс,Мультфильм, приключен ...
  • Секретная служба Санты: Подарок на Рождество / Prep & Landing Stocking Stuf ...
  • Секретная служба Санты: Шалуны против Паинек / Prep & Landing: Naughty vs. ...
  • Madonna / Girl Gone Wild [2012, Pop, HDTV]
  • Информация
    Посетители, находящиеся в группе Гости, не могут оставлять комментарии к данной публикации.