вход на сайт

Имя пользователя :
Пароль :

Восстановление пароля Регистрация
Приключения Икабода и Мистера Тоада / The Adventures Of Ichabod And Mr. Toad (Джеймс Элгар, Клайд Джероними, Джек Кинни, мультфильм, фэнтези, семейный, 1949) [DVDRip, Профессиональный (полное дублирование)]
Рейтинг:
(голосов: 1)



[img]{THEME}/images/logopost.png[/img]



«Приключения Икабода и Мистера Тоада / The Adventures Of Ichabod And Mr. Toad »

«Two Tall Tales by the worlds top story-tellers in one hilarious All-Cartoon Feature!»

Год выпуска: 1949
Страна: США
Производство: Walt Disney Pictures
Жанр: мультфильм, фэнтези, семейный

Режиссёр: Джеймс Элгар, Клайд Джероними, Джек Кинни
В ролях: Бинг Кросби, Бэзил Рэтбоун, Эрик Блор, Дж. Пэт О’Мэлли, Джон МакЛэйш, Колин Кэмпбелл, Кэмпбелл Грант, Клод Аллистер

Перевод: Профессиональный (полное дублирование) +Оригинал
Субтитры:нет

Описание
Это сказка о настоящей дружбе, о необыкновенных и очень опасных приключениях веселого лягушонка и его друзей, находчивость и смекалка которых помогают ему в самую трудную минуту.

В деревушке под названием Сонная Лощина поселяется необычный человек по имени Икабод Крэйн. Как-то раз ему рассказывают легенду о таинственном всаднике без головы, который обезглавливает свои жертвы…

» IMDB-рейтинг:7.20 (3 223)

» КиноПоиск-рейтинг:7.450 (220)


Доп. информация
Премьеры ▼премьера (мир) 5 октября 1949
релиз на DVD 12 ноября 2009, «Уолт Дисней Компани СНГ»
Рейтинг MPAA ▼
нет возрастных ограничений
Mediainfo ▼TextОбщее
Полное имя : D:DownloadsПриключения Икабода и Мистера Тоада.avi
Формат : AVI
Формат/Информация : Audio Video Interleave
Размер файла : 1,31 Гбайт
Продолжительность : 1 ч. 5 м.
Общий поток : 2881 Кбит/сек
Программа кодирования : VirtualDubMod 1.5.10.2 (build 2540/release)
Библиотека кодирования : VirtualDubMod build 2540/release

Видео
Идентификатор : 0
Формат : MPEG-4 Visual
Профиль формата : Advanced [email protected]
Параметр BVOP формата : 2
Параметр QPel формата : Нет
Параметр GMC формата : Без точки перехода
Параметр матрицы формата : Default (H.263)
Режим смешивания : Сжатый битовый поток
Идентификатор кодека : XVID
Идентификатор кодека/Подсказка : XviD
Продолжительность : 1 ч. 5 м.
Битрейт : 2290 Кбит/сек
Ширина : 720 пикс.
Высота : 544 пикс.
Соотношение сторон : 4:3
Частота кадров : 25,000 кадр/сек
Цветовое пространство : YUV
Подвыборка цветности : 4:2:0
Битовая глубина : 8 бит
Тип развёртки : Прогрессивная
Метод сжатия : С потерями
Бит/(Пиксели*Кадры) : 0.234
Размер потока : 1,04 Гбайт (80%)
Библиотека кодирования : XviD 1.2.1 (UTC 2008-12-04)

Аудио #1
Идентификатор : 1
Формат : AC-3
Формат/Информация : Audio Coding 3
Расширение режима : CM (complete main)
Идентификатор кодека : 2000
Продолжительность : 1 ч. 5 м.
Вид битрейта : Постоянный
Битрейт : 192 Кбит/сек
Канал(ы) : 2 канала(ов)
Расположение каналов : Front: L R
Частота : 48,0 КГц
Битовая глубина : 16 бит
Метод сжатия : С потерями
Размер потока : 89,7 Мбайт (7%)
Выравнивание : Разделение по промежуткам
Продолжительность промежутка : 40 мс. (1,00 видеокадр)
Время предзагрузки промежутка : 500 ms

Аудио #2
Идентификатор : 2
Формат : AC-3
Формат/Информация : Audio Coding 3
Расширение режима : CM (complete main)
Идентификатор кодека : 2000
Продолжительность : 1 ч. 5 м.
Вид битрейта : Постоянный
Битрейт : 384 Кбит/сек
Канал(ы) : 5 канала(ов)
Расположение каналов : Front: L C R, Side: L R
Частота : 48,0 КГц
Битовая глубина : 16 бит
Метод сжатия : С потерями
Размер потока : 179 Мбайт (13%)
Выравнивание : Разделение по промежуткам
Продолжительность промежутка : 40 мс. (1,00 видеокадр)
Время предзагрузки промежутка : 500 ms


Тех. данные
Качество: ~ ÐVÐRìρ ~
Продолжительность: 01:05:26 час.

Формат: AVI
Видео кодек: XviD
Аудио кодек: AC-3
Видео: 720x544 (4:3), 25,00 fps, XviD, ~ 2290 kbps avg, 0.23 bit/pixel
Аудио: 48.00 kHz, Audio Coding 3, 2 ch, ~ 192.00 kbps avgДубляж
Аудио: 48.00 kHz, Audio Coding 3, 5 ch, ~ 384.00 kbps avgОригинал



cтол заказов | пожелания | стол заказов по рипам


4e19ab8e54b3bf7579790a45f89f1f432c31bb11Приключения Икабода и Мистера Тоада / The Adventures Of Ichabod And Mr. Toad (Джеймс Элгар, Клайд Джероними, Джек Кинни, мультфильм, фэнтези, семейный, 1949) [DVDRip, Профессиональный (полное дублирование)] Приключения Икабода и Мистера Тоада / The Adventures Of Ichabod And Mr. Toad (Джеймс Элгар, Клайд Джероними, Джек Кинни, мультфильм, фэнтези, семейный, 1949) [DVDRip, Профессиональный (полное дублирование)] " />

Аплоадер: Админ, дата: 10-12-2011, 11:27, торрент скачан: 359 раз

Понравилась раздача? Посмотрите эти:
  • Бойфренд из будущего / About Time (Ричард Кёртис, Фантастика, драма, комеди ...
  • Одноклассники 2 / Grown Ups 2 (Деннис Дуган, Комедия, 2013) [BDRip, Професс ...
  • Миллион для чайников / The Brass Teapot (Рамаа Мосли, Фэнтези, триллер, ком ...
  • Мулан / Mulan (Даррел Руни, Линн Сауферлэнд, мультфильм, мюзикл, приключен ...
  • Жил-был тигр / Ek Tha Tiger (Кабир Кхан, боевик, триллер , 2012) [ HDRip, ...
  • Приключения Икабода и мистера Тоaда / The Adventures of Ichabod and Mr. Toa ...
  • Легенда о МорДу / The Legend of MorDu (Брайан Ларсен, Короткометражный, ска ...
  • Глядя на полумесяц / Hanbun no Tsuki ga Noboru Sora // Сезон 1, Эпизоды с 1 ...
  • Путешествие на дно моря / Voyage to the Bottom of the Sea (Ирвин Аллен / I ...
  • Кажется, я люблю свою жену / I Think I Love My Wife (Крис Рок, Драма, мелод ...
  • Бог любви / God of Love (Люк Мэзени, Короткометражка, фэнтези, комедия, мел ...
  • К-9: Рождественские приключения / K9 Adventures: A Christmas Tale (Бен Гурл ...
  • Кейси Джонс / Casey Jones (Иларион Бэнкс, Короткометражка, фэнтези, боевик, ...
  • Боец из трущоб / Gutter King (Кейт Алан Моррис / Keith Alan Morris, боевик, ...
  • Челюсти 3D / Shark Night 3D (Дэвид Р. Эллис, ужасы, триллер, 2011) [HDRip, ...
  • Приключения Тинтина: Тайна Единорога / The Adventures of Tintin (Стивен Спи ...
  • Гениальный папа / Father of Invention (Трент Купер, Драма, комедия, 2010) [ ...
  • Глаз шторма / The Eye of the Storm (Фред Скеписи, Драма, 2011) [HDRip, Проф ...
  • Человек из банки (Иван Кульнев, Комедия, 2012) [DVDRip, Не требуется]
  • Сдохни, Джон Такер / John Tucker Must Die (Бетти Томас, мелодрама, комедия, ...
  • Информация
    Посетители, находящиеся в группе Гости, не могут оставлять комментарии к данной публикации.