вход на сайт

Имя пользователя :
Пароль :

Восстановление пароля Регистрация
Питер Пэн / Peter Pan (Клайд Джероними, мультфильм, 1953) [DVDRip-AVC, Профессиональный (многоголосый, закадровый)]
Рейтинг:
(голосов: 1)



[img]{THEME}/images/logopost.png[/img]




Питер Пэн / Peter Pan

Год выпуска: 1953
Страна: США
Производство: Walt Disney
Жанр: мультфильм, фэнтези, приключения, семейный, музыка

Режиссёр: Клайд Джероними
В ролях: Бобби Дрисколл, Катрин Бомонт, Ганс Конрид, Билл Томпсон, Хэзер Эйнджел, Пол Коллинз, Томми Ласки, Кэнди Кандидо, Том Конуэй, Роланд Дюпри

Перевод: Профессиональный (многоголосый, закадровый)
Субтитры: Нету

Описание: Уолт Дисней зовет нас с собой в волшебную страну Неверленд, где живет удивительный мальчик, который умеет летать и отказывается взрослеть. Это веселый выдумщик, храбрец и проказник Питер Пэн!
Однажды в поисках собственной тени Питер попадает в Лондон нашего мира и становится другом маленькой Венди и ее братьев Майкла и Джона, и, конечно же, он берет своих ночных друзей с собой в Неверленд, навстречу потрясающим приключениям.
Героям предстоит встретиться с феей Тинкербелл и дружной ватагой Питера Пэна, спасти индейскую принцессу Тигровую Лилию из лап пиратов и сразиться с их демоническим главарем капитаном Крюком!..



"MediaInfo" ▼Общее
Уникальный идентификатор : 231096814339124619428859156421992875831 (0xADDBA0A273BA6982811535CC97718737)
Полное имя : F:Мои релизыМультыpiter_pen_[tfile.ru].mkv
Формат : Matroska
Размер файла : 1,05 Гбайт
Продолжительность : 1 ч. 13 м.
Общий поток : 2031 Кбит/сек
Дата кодирования : UTC 2011-11-26 16:34:59
Программа кодирования : mkvmerge v3.3.0 (Language) built on Mar 24 2010 14:59:24
Библиотека кодирования : libebml v0.8.0 + libmatroska v0.9.0

Видео
Идентификатор : 1
Формат : AVC
Формат/Информация : Advanced Video Codec
Профиль формата : [email protected]
Параметр CABAC формата : Да
Параметр ReFrames формата : 8 кадры
Идентификатор кодека : V_MPEG4/ISO/AVC
Продолжительность : 1 ч. 13 м.
Битрейт : 1607 Кбит/сек
Ширина : 720 пикс.
Высота : 544 пикс.
Соотношение сторон : 4:3
Частота кадров : 25,000 кадр/сек
Цветовое пространство : YUV
Подвыборка цветности : 4:2:0
Битовая глубина : 8 бит
Тип развёртки : Прогрессивная
Бит/(Пиксели*Кадры) : 0.164
Размер потока : 849 Мбайт (79%)
Библиотека кодирования : x264 core 92 r1510 33d382a
Настройки программы : cabac=1 / ref=8 / deblock=1:-1:-1 / analyse=0x3:0x133 / me=umh / subme=7 / psy=1 / psy_rd=1.00:0.10 / mixed_ref=1 / me_range=16 / chroma_me=1 / trellis=2 / 8x8dct=1 / cqm=0 / deadzone=21,11 / fast_pskip=0 / chroma_qp_offset=-3 / threads=3 / sliced_threads=0 / nr=0 / decimate=1 / interlaced=0 / constrained_intra=0 / bframes=3 / b_pyramid=2 / b_adapt=2 / b_bias=0 / direct=3 / wpredb=1 / wpredp=2 / keyint=250 / keyint_min=25 / scenecut=40 / intra_refresh=0 / rc_lookahead=50 / rc=crf / mbtree=1 / crf=21.0 / qcomp=0.60 / qpmin=10 / qpmax=51 / qpstep=4 / ip_ratio=1.40 / aq=1:1.00

Аудио
Идентификатор : 2
Формат : AC-3
Формат/Информация : Audio Coding 3
Расширение режима : CM (complete main)
Идентификатор кодека : A_AC3
Продолжительность : 1 ч. 13 м.
Вид битрейта : Постоянный
Битрейт : 384 Кбит/сек
Канал(ы) : 6 канала(ов)
Расположение каналов : Front: L C R, Side: L R, LFE
Частота : 48,0 КГц
Битовая глубина : 16 бит
Метод сжатия : С потерями
Размер потока : 203 Мбайт (19%)



Качество: DVDRip-AVC
Продолжительность: 01:13:51 час.

Формат: MKV
Видео кодек: H.264
Аудио кодек: AС3
Видео: 720 x 544 (1.324) at 25.000 fps, AVC at 1607 kbps avg, 0.164 bit/pixel
Аудио: 48.0 kHz, AC-3, 6 ch (Front: L C R, Side: L R, LFE), 384 kbps avg


c9c693d7052e3b3b3ea5aad487785620959f4967Питер Пэн / Peter Pan (Клайд Джероними, мультфильм, 1953) [DVDRip-AVC, Профессиональный (многоголосый, закадровый)] Питер Пэн / Peter Pan (Клайд Джероними, мультфильм, 1953) [DVDRip-AVC, Профессиональный (многоголосый, закадровый)] " />

Аплоадер: Админ, дата: 3-12-2011, 20:40, торрент скачан: 359 раз

Понравилась раздача? Посмотрите эти:
  • Мэрайа Мунди и шкатулка Мидаса / The Adventurer: The Curse of the Midas Box ...
  • Голливудский мусор / Garbage (Филипп Волкен, драма, комедия, 2013) [HDTVRip ...
  • Дикий запад. Кино и реальность / The Wild And The West (документальный, 200 ...
  • Призраки / Ghosted (Крэйг Вивейрос, Триллер, драма, 2011) [BDRip-AVC, Профе ...
  • Ну ты и придурок! / You Stupid Man (Брайан Барнс, мелодрама, комедия, 2002) ...
  • Суррогат / The Sessions (Бен Луин, Драма, 2012) [BDRip-AVC, Профессиональны ...
  • Чемпионат Англии 2012-2013 / 25-й тур / Обзор / Суббота / BBC Sport [2013 г ...
  • Страшно красив / Beastly (Даниел Барнз, фэнтези, драма, мелодрама, 2011) [H ...
  • Иностранный легион / La cité (Ким Нгуйен / Kim Nguyen, драма, 2010) [DVDRip ...
  • Спиди Гонщик / Speed Racer (Энди Вачовски / Andy Wachowski, Лана Вачовски / ...
  • Гарфилд / Garfield ( Питер Хьюит / Peter Hewitt, комедия, приключения, семе ...
  • Питер Пэн / Piter Pan (Хэмилтон Ласки /Hamilton Luske/, Клайд Джероними /Cl ...
  • Опять двойка (Борис Степанцев, Евгений Райковский, мультфильм, 1957) [HDRip ...
  • Котенок с улицы Лизюкова (Вячеслав Котеночкин, Мультфильм, 1988) [DVDRip-AV ...
  • Винни Пух: Рождественский Пух / Winnie the Pooh: A Very Merry Pooh Year (К ...
  • Золушка / Cinderella (Клайд Джероними, Уилфред Джексон, мультфильм, мюзикл, ...
  • Безумные мелодии: Кажется я видел котика / Looney Tunes: I Tawt I Taw а Pud ...
  • Скрат: Потерянный орех / Scrat: Gone Nutty (Карлос Салдана, короткометражка ...
  • [3D] Шевели ластами! 3D / Sammys avonturen: De geheime doorgang in 3D (Бен ...
  • История игрушек: Гавайские каникулы / Toy Story: Hawaiian Vacation (Гари ...
  • Лоракс: Серенада / The Lorax: Serenade (Кайл Балда, мультфильм, комедия, му ...
  • Павшая империя / Hirokin (Алехо Мо-Сан, фантастика, боевик, драма, приключе ...
  • Большой отрыв БОБа / B.O.B.s Big Break (Роберт Портер, короткометражка, ан ...
  • Питер Пен[1953.DVDRip]
  • [Дилогия] Питер Пэн / Peter Pan (Клайд Джероними, Робин Бадд, Донован Кук ...
  • Информация
    Посетители, находящиеся в группе Гости, не могут оставлять комментарии к данной публикации.