вход на сайт

Имя пользователя :
Пароль :

Восстановление пароля Регистрация
Русалочка / The Little Mermaid (Джон Маскер, Рон Клементс, Мультфильм, 1989 г.) [HDTVRip-AVC, дублированный (дубляж)]
Рейтинг:
(голосов: 1)



[img]{THEME}/images/logopost.png[/img]



Русалочка / The Little Mermaid

Год выпуска: 1989 г.
Страна: США
Производство: Walt Disney
Жанр: Мультфильм, фэнтези, мюзикл, семейный

Режиссёр: Джон Маскер, Рон Клементс
В ролях: Рене Обержонуа, Кристофер Дэниэл, Барнс Джоди, Бенсон Пэт, Кэрролл Пэдди, Эдвардс Бадди, Хэкетт Джейсон, Марин Кеннет, Марс Эди МакКлёрг, Уилл Райан

Перевод: Дублированный(дубляж)
Субтитры: Нет

Описание:
Красочная мультэкранизация по мотивам знаменитой сказки Ганса Христиана Андерсена. Юная русалочка Ариэль, дочь подводного короля Тритона, однажды безоглядно влюбилась в прекрасного принца Эрика и спасла ему жизнь, вытащив обессиленного юношу на берег во время шторма.
Разгневанный отец-владыка запретил чересчур романтичной дочери даже думать о встрече с людьми. Но морская ведьма Урсула, заманив русалочку в своё логово, исполнила заветное желание Ариэль стать человеком в обмен на её чудесный певучий голос и условие, что если принц не поцелует девушку в течение трёх дней, она навсегда станет рабой Урсулы. И это была лишь часть коварного плана заполучить себе владения Тритона.

IMDB: рейтинг 7.50 (37 367)
КиноПоиск: рейтинг 8.154 (17 738)

"MediaInfo:" ▼
Общее
Формат: Matroska
Размер файла: 2,25 Гбайт
Продолжительность: 1 ч. 19 м.
Общий поток: 4081 Кбит/сек
Дата кодирования: UTC 2011-07-03 18:16:01
Программа кодирования: mkvmerge v4.5.0 (Speed of Light) сборка от Feb 1 2011 02:10:32
Библиотека кодирования: libebml v1.2.0 + libmatroska v1.1.0
Видео
Идентификатор: 1
Формат: AVC
Формат/Информация: Advanced Video Codec
Профиль формата: [email protected]
Параметр CABAC формата: Да
Параметр ReFrames формата: 9 кадров
Параметры GOP формата: M=1, N=50
Режим смешивания: Header stripping
Идентификатор кодека: V_MPEG4/ISO/AVC
Продолжительность: 1 ч. 19 м.
Битрейт: 3552 Кбит/сек
Ширина: 1128 пикс.
Высота: 634 пикс.
Соотношение сторон: 16:9
Частота кадров: 25,000 кадр/сек
Цветовое пространство: YUV
Подвыборка цветности: 4:2:0
Битовая глубина: 8 бит
Тип развёртки: Прогрессивная
Бит/(Пиксели*Кадры): 0.199
Размер потока: 1,96 Гбайт (87%)
Заголовок: PAL, 1128x634 (1.779:1, 16/9), HDTVRip
Библиотека кодирования: x264 core 115 r1947kMod b5a8ad7
Настройки программы: cabac=1 / ref=9 / deblock=1:-2:-1 / analyse=0x3:0x133 / me=umh / subme=10 psy=1 / fade_compensate=0.00 / psy_rd=0.60:0.00 / mixed_ref=1 / me_range=32 / chroma_me=1 / rellis=2 /
Основные цвета: BT.709-5, BT.1361, IEC 61966-2-4, SMPTE RP177
Характеристики трансфера: BT.709-5, BT.1361
Коэффициенты матрицы: BT.709-5, BT.1361, IEC 61966-2-4 709, SMPTE RP177
Аудио
Идентификатор: 2
Формат: AC-3
Формат/Информация: Audio Coding 3
Расширение режима: CM (complete main)
Режим смешивания: Header stripping
Идентификатор кодека: A_AC3
Продолжительность: 1 ч. 19 м.
Вид битрейта: Постоянный
Битрейт: 448 Кбит/сек
Каналы: 6 каналов
Расположение каналов: Front: L C R, Side: L R, LFE
Частота: 48,0 КГц
Битовая глубина: 16 бит
Метод сжатия: С потерями
Размер потока: 253 Мбайт (11%)
Заголовок: AC3, 6 ch, 48 kHz, 448 kbps, Dubbing
Язык: Russian
Меню
00:00:00.000: en:1. "Fathoms Below"
00:01:57.120: en:2. Main Titles
00:03:22.840: en:3. Sebastians Concert
00:05:22.200: en:4. The Sunken Ship
00:08:19.360: en:5. Scuttle
00:10:07.360: en:6. Ursula Watches Ariel
00:14:09.400: en:7. "Part of the World"
00:18:02.760: en:8. To the Surface
00:21:08.600: en:9. Storm at Sea
00:23:45.320: en:10. Eric is Saved
00:27:39.680: en:11. "Under the Sea"
00:31:18.000: en:12. Sebastian and King Triton
00:32:42.000: en:13. Ariels Hidden Treasure
00:36:58.720: en:14. Ursulas Lair
00:38:07.320: en:15. "Poor Unfortunate Souls"
00:39:41.040: en:16. Ursulas Deal
00:43:33.600: en:17. In Erics Kingdom
00:48:36.800: en:18. Dinner in the Castle
00:49:58.800: en:19. "Les Poissons"
00:54:45.600: en:20. A Tour of the Kingdom
00:56:54.440: en:21. "Kiss the Girl"
00:59:40.520: en:22. Ursula Takes Charge
01:02:48.600: en:23. The Wedding Ship
01:06:57.480: en:24. S
26f884a3f47ce36aa299f7df5cdc3c67fe03724bРусалочка / The Little Mermaid (Джон Маскер, Рон Клементс, Мультфильм, 1989 г.) [HDTVRip-AVC, дублированный (дубляж)] Русалочка / The Little Mermaid (Джон Маскер, Рон Клементс, Мультфильм, 1989 г.) [HDTVRip-AVC, дублированный (дубляж)] " />

Аплоадер: Админ, дата: 16-07-2011, 18:07, торрент скачан: 359 раз

Понравилась раздача? Посмотрите эти:
  • Русалочка / The Little Mermaid (Рон Клементс , Джон Маскер, мультфильм, мюз ...
  • Русалочка / The Little Mermaid (Рон Клементс, Джон Маскер, Мультфильм, мюз ...
  • Русалочка / The Little Mermaid (Рон Клементс / Ron Clements, Джон Маскер / ...
  • Лего: Звёздные войны - Награда бомбада / LEGO: Star wars - Вombad Bounty (П ...
  • Принцесса и лягушка / The Princess and the Frog (Рон Клементс, Джон Маскер, ...
  • [EN] Русалочка / The Little Mermaid (Disney, мультфильм, 1989) [DVDRip]
  • Отвези меня домой / Take Me Home Tonight (Майкл Даус, комедия, драма, 2011) ...
  • Резня /Carnage (Роман Полански, драма, комедия, 2011) [DVDRip-AVC, Дублиров ...
  • Пираньи 3DD / Piranha 3DD (Джон Гулажер, ужасы, триллер, 2012) [BDRip-AVC, ...
  • Русалочка: Начало истории Ариэль / The Little Mermaid: Ariels Beginning (П ...
  • Русалочка / The Little Mermaid (Джон Маскер, Рон Клементс, Мультфильм, 1989 ...
  • Геркулес / Hercules (Рон Клементс ,Джон Маскер, мультфильм, мюзикл, фэнтези ...
  • Морская бригада / SeaFood (Аун Хое Го, мультфильм, 2011) [DVDRip-AVC, Дубля ...
  • Приключения Тинтина: Тайна Единорога / The Adventures of Tintin (Стивен Спи ...
  • [3D] Трансформеры 3: Темная сторона Луны 3д / Transformers: Dark of the Moo ...
  • Запрещенный прием / Sucker Punch (Зак Снайдер, Фэнтези, 2011) [BDRemux 108 ...
  • Русалочка / The Little Mermaid (Рон Клементс, Джон Маскер, мультфильм, мюзи ...
  • История игрушек: Гавайские каникулы / Toy Story: Hawaiian Vacation (Гари ...
  • Двигай время! / Los ilusionautas (Эдуардо Шульдт, Мультфильм, фэнтези, прик ...
  • Скрат: Потерянный орех / Scrat: Gone Nutty (Carlos Saldanha, мультфильм, к ...
  • Скарат: Не время для орехов / Scrat: No Time For Nuts (Крис Рено, Майк Тёр ...
  • Сид, инструкция по выживанию / Surviving Sid (Гален Т. Чу, Карен Дишер, мул ...
  • Принцесса и лягушка / The Princess and the Frog (Рон Клементс, Джон Маскер, ...
  • Русалочка / The Little Mermaid (Рон Клементс, Джон Маскер, мультфильм, мюзи ...
  • Русалочка / The Little Mermaid (Джон Маскер, мюзикл, семейный, мультфильм, ...
  • Информация
    Посетители, находящиеся в группе Гости, не могут оставлять комментарии к данной публикации.