вход на сайт

Имя пользователя :
Пароль :

Восстановление пароля Регистрация
Футурама: Игра Бендера / Futurama: Benders Game (Дуэйн Кэри-Хилл / мультфильм, фантастика, фэнтези, боевик, комедия, приключения / 2008) [BDRip 720p, Профессиональный (многоголосый закадровый) + Оригинал + SUB]
Рейтинг:
(голосов: 1)



[img]{THEME}/images/logopost.png[/img]



• Футурама: Игра Бендера / Futurama: Benders Game •
Год выпуска: 2008г.
Страна: США
Производство: 20th Century Fox Television, Curiosity Company
Жанр: мультфильм, фантастика, фэнтези, боевик, комедия, приключения
Режиссёр: Дуэйн Кэри-Хилл
Роли озвучивали:: Кэти Сагал, Джон Ди Маджио, Дэвид Херман, Морис ЛаМарш, Фил ЛаМарр, Рич Литтл, Тресс МакНилл, Кэт Суси, Джордж Такей, Лоурен Том.
Перевод: Профессиональный (многоголосый закадровый) + Оригинал (англоязычная звуковая дорожка)
Субтитры: Русские, Румынские, Английские
Описание:
Когда цены на топливо взлетают до небес, команда Планеты Экспресс отправляется в новое опасное путешествие к единственному на свете источнику темной материи — топливу для всех космических кораблей. Но глубоко под землей наши герои попадают в очень необычное место… средневековую страну!!! с драконами, магами и «обдолбанными» рыцарями, которые подозрительно похожи на Бендера. Припаркуйте свой автомобиль, оседлайте единорога и приготовьтесь к захватывающему зрелищу…

Качество: BDRip 720p
Продолжительность: 01:27:27

Формат: MKV
Видео кодек: AVC
Аудио кодек: AC-3 / DTS
Видео: 1280x720 (1.77:1), 23.976 fps, 3 170 kbps avg, 0.143 bit/pixel
Аудио#1: AC-3, 48 kHz, 6 ch, 384 kbps avg (RUS)
Аудио#2: DTS, 48 kHz, 6 ch, 1510kbps avg (ENG)
MediaInfo ▼TextGeneral
Video
ID : 1
Format : AVC
Format/Info : Advanced Video Codec
Format profile : [email protected]
Format settings, CABAC : Yes
Format settings, ReFrames : 8 frames
Codec ID : V_MPEG4/ISO/AVC
Duration : 1h 27mn
Bit rate : 3 170 Kbps
Width : 1 280 pixels
Height : 720 pixels
Display aspect ratio : 16:9
Frame rate : 23.976 fps
Color space : YUV
Chroma subsampling : 4:2:0
Bit depth : 8 bits
Scan type : Progressive
Bits/(Pixel*Frame) : 0.143
Stream size : 1.88 GiB (61%)
Title : Benders Game
Writing library : x264 core 65 r1066M 045ae40
Encoding settings : cabac=1 / ref=8 / deblock=1:-3:-3 / analyse=0x3:0x133 / me=umh / subme=9 / psy_rd=0.8:0.0 / mixed_ref=1 / me_range=24 / chroma_me=1 / trellis=0 / 8x8dct=1 / cqm=0 / deadzone=21,11 / chroma_qp_offset=-2 / threads=6 / nr=0 / decimate=1 / mbaff=0 / bframes=6 / b_pyramid=1 / b_adapt=2 / b_bias=0 / direct=1 / wpredb=1 / keyint=250 / keyint_min=25 / scenecut=40(pre) / rc=2pass / bitrate=3170 / ratetol=1.0 / qcomp=0.60 / qpmin=10 / qpmax=25 / qpstep=4 / cplxblur=20.0 / qblur=0.5 / ip_ratio=1.40 / pb_ratio=1.30 / aq=1:0.70
Language : English

Audio #1
ID : 2
Format : AC-3
Format/Info : Audio Coding 3
Mode extension : CM (complete main)
Codec ID : A_AC3
Duration : 1h 27mn
Bit rate mode : Constant
Bit rate : 384 Kbps
Channel(s) : 6 channels
Channel positions : Front: L C R, Side: L R, LFE
Sampling rate : 48.0 KHz
Bit depth : 16 bits
Compression mode : Lossy
Stream size : 240 MiB (8%)
Title : AC3 384 kbps
Language : Russian

Audio #2
ID : 3
Format : DTS
Format/Info : Digital Theater Systems
Codec ID : A_DTS
Duration : 1h 27mn
Bit rate mode : Constant
Bit rate : 1 510 Kbps
Channel(s) : 6 channels
Channel positions : Front: L C R, Side: L R, LFE
Sampling rate : 48.0 KHz
Bit depth : 24 bits
Compression mode : Lossy
Stream size : 944 MiB (30%)
Title : DTS 1536 kbps
Language : English

Text #1
ID : 4
Format : UTF-8
Codec ID : S_TEXT/UTF8
Codec ID/Info : UTF-8 Plain Text
Language : Russian

Text #2
ID : 5
Format : ASS
Codec ID : S_TEXT/ASS
Codec ID/Info : Advanced Sub Station Alpha
Compression mode : Lossless
Language : English

Text #3
ID : 6
Format : ASS
Codec ID : S_TEXT/ASS
Codec ID/Info : Advanced Sub Station Alpha
Compression mode : Lossless
Language : Romanian
Релиз Группы "Virtus"

Стол заказов по рипам / Вступление в РГ / Благодарности, критика и другое


e1c93c554a68dbaaf788b6de3c90d7aead52ec21Футурама: Игра Бендера / Futurama: Benders Game (Дуэйн Кэри-Хилл / мультфильм, фантастика, фэнтези, боевик, комедия, приключения / 2008) [BDRip 720p, Профессиональный (многоголосый закадровый) + Оригинал + SUB] Футурама: Игра Бендера / Futurama: Benders Game (Дуэйн Кэри-Хилл / мультфильм, фантастика, фэнтези, боевик, комедия, приключения / 2008) [BDRip 720p, Профессиональный (многоголосый закадровый) + Оригинал + SUB] " />

Аплоадер: Админ, дата: 28-02-2011, 23:39, торрент скачан: 359 раз

Понравилась раздача? Посмотрите эти:
  • Погнали! / Getaway (Кортни Соломон, боевик, криминал, 2013) [BDRip 720p, Пр ...
  • Суррогат / The Sessions (Бен Луин, драма, 2012) [BDRip 720p, Профессиональн ...
  • Зубная фея 2 / Tooth Fairy 2 (Алекс Замм, комедия, семейный, 2012) [BDRip 7 ...
  • [EN] Футурама: Большой куш бендера / Futurama: Benders big score (Дуэйн Кэр ...
  • Цельнометаллическая оболочка / Full Metal Jacket (Стэнли Кубрик, драма, вое ...
  • Персонаж / Stranger Than Fiction (Марк Форстер, Комедия, драма, фантастика, ...
  • Космический джэм / Space Jam (Джо Питка, мультфильм, фэнтези, комедия, 1996 ...
  • Гриффины: Это ловушка! / Family Guy Presents: Its a Trap! (Питер Шин / муль ...
  • Футурама: Зверь с миллиардом спин / Futurama: The Beast with a Billion Back ...
  • Футурама: Все 4 полнометражные части / Futurama (Питер Аванзино / Дуэйн Кэ ...
  • Исходный код / Source Code (Дункан Джонс, фантастика, боевик, триллер, 2011 ...
  • Бобер / The Beaver (Джоди Фостер, драма, 2011) [BDRip 720p, Дубляж + Оригин ...
  • Дети шпионов 4D / Spy Kids: All the Time in the World in 4D (Роберт Родриге ...
  • Один Дома / Home Alone (Крис Коламбус, комедия, приключения, семейный, 1990 ...
  • Ледниковый период: Гигантское Рождество / Ice Age: A Mammoth Christmas (Кар ...
  • Чаббчаббы спасают Рождество / The Chubbchubbs Save Xmas (Коуди Камерон, мул ...
  • Вся королевская рать / All the Kings Men (Стивен Зеллиан, триллер, драма, 2 ...
  • Феи: Потерянное сокровище / Tinker Bell and the Lost Treasur (Клэй Холл, му ...
  • Рыжий пес / Red Dog (Крив Стендерс, драма, комедия, семейный, 2011) [BDRip ...
  • Похищенная / A Lonely Place to Die (Джулиан Джилби, триллер, криминал, прик ...
  • Проект X: Дорвались / Project X (Нима Нуризаде, комедия, 2012) [BDRip 720p, ...
  • Футурама: Игра Бендера / Futurama: Benders Game (Дуэйн Кэри-Хилл, анимация, ...
  • Сверхновый Супермен / All-Star Superman (Сэм Лью, мультфильм, фантастика, б ...
  • Хостел 3 / Hostel: Part III (Скотт Спигел / Scott Spiegel, ужасы, триллер, ...
  • Шерлок Холмс: Игра теней / Sherlock Holmes: A Game of Shadows (Гай Ричи, Бо ...
  • Информация
    Посетители, находящиеся в группе Гости, не могут оставлять комментарии к данной публикации.