вход на сайт

Имя пользователя :
Пароль :

Восстановление пароля Регистрация
Монстры на каникулах / Hotel Transylvania (Генндий Тартаковский, мультфильм, комедия, семейный, 2012) [BDRip, Дубляж, Авторский (одноголосый закадровый)]
Рейтинг:
(голосов: 1)



[img]{THEME}/images/logopost.png[/img]



Монстры на каникулах / Hotel Transylvania
«Будет страшно смешно»
Год выпуска: 2012
Страна: США
Производство: Columbia Pictures, Sony Pictures Animation
Жанр: мультфильм, комедия, семейный
Режиссёр:Генндий Тартаковский / Genndy Tartakovsky
В ролях:Адам Сэндлер, Энди Сэмберг, Селена Гомес, Кевин Джеймс, Фрэн Дрешер, Стив Бушеми, Молли Шеннон, Дэвид Спейд, Си-Ло, Джон Ловиц
Перевод: Дублированный, Авторский (одноголосый закадровый)
Озвучка: Андрей Гаврилов
Субтитры: Нет
ОписаниеГраф Дракула для себя и своей любимой дочки построил хорошо укрытый от посторонних глаз отель, куда монстры со всего света приезжают отдохнуть от семейных забот, повседневной суеты и, конечно… людей. Но вездесущие американские туристы проникают и сюда.



Качество: BDRip
Продолжительность: 01:31:31
Формат: AVI
Видео кодек: XviD
Аудио кодек:АС3
Видео:720х384 (1.875), 23.976 fps, XviD MPEG-4 ~ 2291 Kbps avg, 0.346 bit/pixel
Аудио 1: 48 kHz, AC3 Dolby Digital, 3/2 (L,C,R,l,r) + LFE ch, ~448 kbpsДубляж
Аудио 1: 48 kHz, AC3 Dolby Digital, 3/2 (L,C,R,l,r) + LFE ch, ~448 kbpsАвторский (одноголосый закадровый)


Премьера (мир): 8 сентября 2012
Премьера (РФ): 18 октября 2012, «WDSSPR»
"MediaInfo:" ▼TextD:рип5Hotel.Transylvania.2012.BDRip..avi
General
Complete name : D:рип5Hotel.Transylvania.2012.BDRip..avi
Format : AVI
Format/Info : Audio Video Interleave
Format profile : OpenDML
File size : 2.05 GiB
Duration : 1h 31mn
Overall bit rate : 3 205 Kbps
Writing application : VirtualDubModRus 1.5.10.2 (build 2542/release)
Writing library : VirtualDubMod build 2542/release
Video #0
ID : 0
Format : MPEG-4 Visual
Format profile : Advanced [email protected]
Format settings, BVOP : 2
Format settings, QPel : No
Format settings, GMC : No warppoints
Format settings, Matrix : Default (H.263)
Muxing mode : Packed bitstream
Codec ID : XVID
Codec ID/Hint : XviD
Duration : 1h 31mn
Bit rate : 2 291 Kbps
Width : 720 pixels
Height : 384 pixels
Display aspect ratio : 1.875
Frame rate : 23.976 fps
Color space : YUV
Chroma subsampling : 4:2:0
Bit depth : 8 bits
Scan type : Progressive
Compression mode : Lossy
Bits/(Pixel*Frame) : 0.346
Stream size : 1.46 GiB (71%)
Writing library : XviD 64
Audio #1
ID : 1
Format : AC-3
Format/Info : Audio Coding 3
Mode extension : CM (complete main)
Codec ID : 2000
Duration : 1h 31mn
Bit rate mode : Constant
Bit rate : 448 Kbps
Channel(s) : 6 channels
Channel positions : Front: L C R, Side: L R, LFE
Sampling rate : 48.0 KHz
Bit depth : 16 bits
Compression mode : Lossy
Stream size : 293 MiB (14%)
Alignment : Aligned on interleaves
Interleave, duration : 42 ms (1.00 video frame)
Interleave, preload duration : 512 ms
Audio #2
ID : 2
Format : AC-3
Format/Info : Audio
fd2e02ec5b06550fb596da816a464ae98e210986Монстры на каникулах / Hotel Transylvania (Генндий Тартаковский, мультфильм, комедия, семейный, 2012) [BDRip, Дубляж, Авторский (одноголосый закадровый)] Монстры на каникулах / Hotel Transylvania (Генндий Тартаковский, мультфильм, комедия, семейный, 2012) [BDRip, Дубляж, Авторский (одноголосый закадровый)] " />

Аплоадер: Админ, дата: 15-02-2013, 16:28, торрент скачан: 359 раз

Понравилась раздача? Посмотрите эти:
  • Возвращение героя / The Last Stand (Ким Чжи-ун, Боевик, триллер, криминал, ...
  • Мужество / Wymyk (Грег Зглински, драма, 2011) [DVDRip, Любительский (одного ...
  • Неудержимый / Bullet to the Head (Уолтер Хилл, Боевик, триллер, криминал, 2 ...
  • Поймай толстуху, если сможешь [Театральная версия] / Identity Thief [Theatr ...
  • 23:59 / 23:59 (Гилберт Чан, Ужасы, 2011) [HDRip, Любительский (одноголосый ...
  • Чемпионат Италии 2012-13 / 36-й тур / Рома — Кьево / НТВ+ [07.05.2013, SD, ...
  • В хлам / Smashed (Джеймс Понсольдт, Драма, комедия, 2012) [HDRip, Профессио ...
  • [iPhone, iPod] Монстры на каникулах / Hotel Transylvania (Геннадий Тартаков ...
  • Псы войны / The Dogs of War (Джон Ирвин, боевик, драма, приключения, военны ...
  • Монстры на каникулах / Hotel Transylvania (Генндий Тартаковский, мультфильм ...
  • [3D] Монстры на каникулах / Hotel Transylvania (Геннадий Тартаковский, муль ...
  • Монстры на каникулах / Hotel Transylvania (Генндий Тартаковский, мультфильм ...
  • Плохая актриса / Bad Actress (Роберт Ли Кинг, комедия, 2011) [DVDRip, Профе ...
  • Захват / Carjacked (Джон Бонито, триллер, 2011)[BDRip, Профессиональный (мн ...
  • Монстры на каникулах / Hotel Transylvania (Генндий Тартаковский, Мультфильм ...
  • Монстры на каникулах / Hotel Transylvania (Генндий Тартаковский, Мультфильм ...
  • Монстры на каникулах / Hotel Transylvania (Генндий Тартаковский, мультфильм ...
  • Монстры на каникулах / Hotel Transylvania (Геннадий Тартаковский, мультфиль ...
  • [3D] Монстры на каникулах 3D трейлер / Hotel Transylvania 3D trailer (Геннд ...
  • Монстры на каникулах / Hotel Transylvania (Генндий Тартаковский, Мультфильм ...
  • Монстры на каникулах / Hotel Transylvania (Генндий Тартаковский, Мультфильм ...
  • Tank Feat. T.I. & Kris Stephens / Compliments [2012, RnB,Hip-Hop, HDRip]
  • Скуби-Ду: Нападение Пантазаура / Scooby-Doo! Legend of the Phantosaur (Дугл ...
  • Супершторм в Сиэтле / Seattle Superstorm (Джейсон Бурк, фантастика, боевик ...
  • [Трейлер] Монстры на каникулах / Hotel Transylvania (Генндий Тартаковский, ...
  • Информация
    Посетители, находящиеся в группе Гости, не могут оставлять комментарии к данной публикации.