вход на сайт

Имя пользователя :
Пароль :

Восстановление пароля Регистрация
Ральф / Wreck-It Ralph (Рич Мур, Мультфильм, комедия, семейный, 2012) [BDRip, Профессиональный (полное дублирование)]
Рейтинг:
(голосов: 1)



[img]{THEME}/images/logopost.png[/img]



• Ральф / Wreck-It Ralph •
«Хорошего друга должно быть много»

Год выпуска: 2012
Страна: США
Производство: Walt Disney Animation Studios
Жанр: Мультфильм, комедия, семейный

Режиссёр: Рич Мур
В ролях: Джон Си Райли, Джейн Линч, Деннис Хейсбёрт, Сара Силверман, Стефани Скотт, Брэндон Т. Джексон, Джек МакБрайер, Скайлар Эстин, Скотт Менвилль, Джек Эйнджел

Перевод: Профессиональный (полное дублирование)
Субтитры: Нет

Описание: Ральф — второстепенный персонаж восьмибитной компьютерной игры, и ему надоело находиться в тени главного героя, мастера на все руки Феликса, который всегда появляется, чтобы «исправить» ситуацию! После тридцати лет добросовестной работы в роли злодея, в течение которых все похвалы выпадали на долю Феликса, Ральф больше не хочет быть плохим. Он решает отправиться в путешествие по аркадным играм разных жанров, чтобы доказать всем, что и он тоже может быть героем. На своем пути Ральф встречает героев разных игр — хладнокровную сержанта Калхун из игры Hero’s Duty, оберегающую планету от нашествия инопланетных захватчиков, и сладкую на вид, но острую на язычок Сластену фон Дю, чье существование в гоночном симуляторе Sugar Rush внезапно оказывается под угрозой. Наконец-то Ральфу выпадает шанс показать, что он умеет не только разрушать!Дата премьеры (мир): 1 ноября 2012
Дата премьеры (РФ): 1 ноября 2012, «WDSSPR»

Качество: BDRip |Сэмпл
Продолжительность: 01:41:13


Формат: AVI
Видео кодек: XviD
Аудио кодек: AC3
Видео: 720x304 (2.35:1), 23.976 fps, XviD 65 ~1668 kbps avg, 0.282 bit/pixel
Аудио: 48 kHz, AC3 Dolby Digital, 3/2 (L,C,R,l,r) + LFE ch, ~384.00 kbps avg


MediaInfo ▼TextGeneral
Format : AVI
Format/Info : Audio Video Interleave
File size : 1.46 GiB
Duration : 1h 41mn
Overall bit rate : 2 061 Kbps
Writing application : VirtualDubMod 1.5.10.2 (build 2540/release)
Writing library : VirtualDubMod build 2540/release

Video
ID : 0
Format : MPEG-4 Visual
Format profile : Advanced [email protected]
Format settings, BVOP : 1
Format settings, QPel : No
Format settings, GMC : No warppoints
Format settings, Matrix : Custom
Codec ID : XVID
Codec ID/Hint : XviD
Duration : 1h 41mn
Bit rate : 1 668 Kbps
Width : 720 pixels
Height : 304 pixels
Display aspect ratio : 2.35:1
Frame rate : 23.976 fps
Color space : YUV
Chroma subsampling : 4:2:0
Bit depth : 8 bits
Scan type : Progressive
Compression mode : Lossy
Bits/(Pixel*Frame) : 0.318
Stream size : 1.18 GiB (81%)
Writing library : XviD 65

Audio
ID : 1
Format : AC-3
Format/Info : Audio Coding 3
Mode extension : CM (complete main)
Format settings, Endianness : Big
Codec ID : 2000
Duration : 1h 41mn
Bit rate mode : Constant
Bit rate : 384 Kbps
Channel(s) : 6 channels
Channel positions : Front: L C R, Side: L R, LFE
Sampling rate : 48.0 KHz
Bit depth : 16 bits
Compression mode : Lossy
Stream size : 278 MiB (19%)
Alignment : Split accross interleaves
Interleave, duration : 42 ms (1.00 video frame)
Interleave, preload duration : 500 ms


Релиз Группы "Virtus"

Стол заказов / Вступление в РГ / Благодарности, критика и другое


3ff3dda15da7eb09eae301e9e11d4b9d956457f9Ральф / Wreck-It Ralph (Рич Мур, Мультфильм, комедия, семейный, 2012) [BDRip, Профессиональный (полное дублирование)] Ральф / Wreck-It Ralph (Рич Мур, Мультфильм, комедия, семейный, 2012) [BDRip, Профессиональный (полное дублирование)] " />

Аплоадер: Админ, дата: 28-02-2013, 00:37, торрент скачан: 359 раз

Понравилась раздача? Посмотрите эти:
  • Ральф / Wreck-It Ralph (Рич Мур, Мультфильм, комедия, приключения, семейный ...
  • Ральф / Wreck-It Ralph (Рич Мур, мультфильм, комедия, приключения, семейный ...
  • Ральф / Wreck-It Ralph (Рич Мур, мультфильм, комедия, приключения, семейный ...
  • Ральф / Wreck-It Ralph (Рич Мур, мультфильм, комедия, приключения, семейный ...
  • Ральф / Wreck-It Ralph (Рич Мур, Мультфильм, комедия, семейный, 2012) [BDRi ...
  • Ральф / Wreck-It Ralph (Рич Мур, Мультфильм, комедия, семейный, 2012) [BDRi ...
  • Ральф / Wreck-It Ralph (Рич Мур, Мультфильм, комедия, семейный, 2012) [BDRi ...
  • Ральф / Wreck-It Ralph (Рич Мур, Мультфильм, комедия, семейный, 2012) [DVD9 ...
  • Ральф / Wreck-It Ralph (Рич Мур, Мультфильм, комедия, семейный, 2012) [BDRi ...
  • Ральф / Wreck-It Ralph (Рич Мур, Мультфильм, комедия, семейный, 2012) [BDRi ...
  • Ральф / Wreck-It Ralph (Рич Мур, Мультфильм, комедия, семейный, 2012) [BDRi ...
  • Ральф / Wreck-It Ralph (Рич Мур, Мультфильм, Приключения, 2012) [BDRemux 10 ...
  • Ральф / Wreck-It Ralph (Рич Мур, Мультфильм, комедия, семейный, 2012) [HDRi ...
  • Ральф / Wreck-It Ralph (Рич Мур, Мультфильм, комедия, семейный, 2012) [BDRi ...
  • Ральф / Wreck-It Ralph (Рич Мур, Мультфильм, комедия, семейный, 2012) [BDRi ...
  • Ральф / Wreck-It Ralph (Рич Мур, Мультфильм, комедия, семейный, 2012) [HDRi ...
  • Ральф / Wreck-It Ralph (Рич Мур, Мультфильм, комедия, семейный, 2012) [BDRi ...
  • Ральф / Wreck-It Ralph (Рич Мур, Мультфильм, комедия, семейный, 2012) [480x ...
  • Ральф / Wreck-It Ralph (Рич Мур, Мультфильм, комедия, семейный, 2012) [HDRi ...
  • [Трейлер #1] Ральф-разрушитель / Wreck-It Ralph (Рич Мур, мультфильм) [HDRi ...
  • Информация
    Посетители, находящиеся в группе Гости, не могут оставлять комментарии к данной публикации.