вход на сайт

Имя пользователя :
Пароль :

Восстановление пароля Регистрация
Мулан / Mulan (Даррел Руни, Линн Сауферлэнд, мультфильм, мюзикл, приключения, семейный, 1998) [BDRip, Профессиональный (полное дублирование)]
Рейтинг:
(голосов: 1)



[img]{THEME}/images/logopost.png[/img]



Мулан / Mulan

Год выпуска: 1998
Страна: США
Производство: Walt Disney Pictures
Жанр: Мультфильм, мюзикл, приключения, семейный

Режиссёр: Даррел Руни, Линн Сауферлэнд
В ролях:Минг-На, Б.Д. Вонг, Марк Моусли, Люси Лью, Харви Фирштейн, Сандра О, Гедде Ватанабе, Лоурен Том, Джерри Тондо, Пэт Морита

Перевод: Профессиональный (полное дублирование)
Субтитры: Отсутствуют

Описание: Для великого народа наступили тяжелые времена: на страну напало воинственное племя гуннов. Переодевшись в мужскую одежду, Мулан присоединяется к другим воинам и отправляется в опасный поход к подножию заснеженных гор. Ее сопровождает забавный дракончик Мушу, который больше похож на маленькую собачку, чем на мифическое чудовище. Пытаясь скрыть тайну, они попадают в забавные ситуации и не подозревают, что их секрет вот — вот раскроется!...

Качество: BDRip (источник:Blu-ray 1080p)
Продолжительность: 01:27:50 час.

Формат: AVI
Видео кодек: XviD
Аудио кодек: AC3
Видео: 704x416 (1.69:1), 23,976 fps, XviD build 65 ~1911 kbps avg, 0.27 bit/pixel
Аудио: 48 kHz, AC3 Dolby Digital, 3/2 (L,C,R,l,r) + LFE ch, ~448.00 kbps avg

MediaInfo ▼
Text
Общее
Полное имя : F:Mulan.1998.RUS.BDRip.XviD.AC3.-HQCLUB.avi
Формат : AVI
Формат/Информация : Audio Video Interleave
Размер файла : 1,45 Гбайт
Продолжительность : 1 ч. 27 м.
Общий поток : 2369 Кбит/сек
Название фильма : Мулан / Mulan (1998) BDRip
Режиссёр : kingsize87
Программа кодирования : VirtualDubMod 1.5.10.2 (build 2542/release)
Правообладатель : http://hqclub.net/ HQCLUB
Примечание : 26.02.2013

Видео
Идентификатор : 0
Формат : MPEG-4 Visual
Профиль формата : Advanced [email protected]
Параметр BVOP формата : 1
Параметр QPel формата : Нет
Параметр GMC формата : Без точки перехода
Параметр матрицы формата : Выборочная
Идентификатор кодека : XVID
Идентификатор кодека/Подсказка : XviD
Продолжительность : 1 ч. 27 м.
Битрейт : 1911 Кбит/сек
Ширина : 704 пикселя
Высота : 416 пикселей
Соотношение сторон : 1,692
Частота кадров : 23,976 кадра/сек
Цветовое пространство : YUV
Субдискретизация насыщенности : 4:2:0
Битовая глубина : 8 бит
Тип развёртки : Прогрессивная
Метод сжатия : С потерями
Бит/(Пиксели*Кадры) : 0.272
Размер потока : 1,17 Гбайт (81%)
Библиотека кодирования : XviD 65

Аудио
Идентификатор : 1
Формат : AC-3
Формат/Информация : Audio Coding 3
Расширение режима : CM (complete main)
Параметр Endianness формата : Big
Идентификатор кодека : 2000
Продолжительность : 1 ч. 27 м.
Вид битрейта : Постоянный
Битрейт : 448 Кбит/сек
Каналы : 6 каналов
Расположение каналов : Front: L C R, Side: L R, LFE
Частота : 48,0 КГц
Битовая глубина : 16 бит
Метод сжатия : С потерями
Размер потока : 281 Мбайт (19%)
Выравнивание : Разделение по промежуткам
Продолжительность промежутка : 42 мс. (1,00 видеокадр)
Время предзагрузки промежутка : 500 мс.



Стол заказов POWER | Отзывы | Вступление в POWER


0f67e851e47d48d1a42fc3a8d61d63ac3f35d420Мулан / Mulan (Даррел Руни, Линн Сауферлэнд, мультфильм, мюзикл, приключения, семейный, 1998) [BDRip, Профессиональный (полное дублирование)] Мулан / Mulan (Даррел Руни, Линн Сауферлэнд, мультфильм, мюзикл, приключения, семейный, 1998) [BDRip, Профессиональный (полное дублирование)] " />

Аплоадер: Админ, дата: 27-02-2013, 16:50, торрент скачан: 359 раз

Понравилась раздача? Посмотрите эти:
  • Бойфренд из будущего / About Time (Ричард Кёртис, Фантастика, драма, комеди ...
  • Одноклассники 2 / Grown Ups 2 (Деннис Дуган, Комедия, 2013) [BDRip, Професс ...
  • Кровью и потом: Анаболики / Pain & Gain (Майкл Бэй, криминал, комедия, трил ...
  • Миллион для чайников / The Brass Teapot (Рамаа Мосли, Фэнтези, триллер, ком ...
  • Таймлесс. Рубиновая книга / Rubinrot (Феликс Фуксштайнер, Фантастика, фэнте ...
  • Мулан / Mulan (Тони Бэнкрофт, Бэрри Кук, Мультфильм, мюзикл, приключения, с ...
  • Мулан 2 / Mulan II (Даррел Руни, Линн Сауферлэнд, Мультфильм, мюзикл, боеви ...
  • Мулан 2 / Mulan 2 (Даррел Руни, Линн Сауферлэнд, мультфильм, мюзикл, боевик ...
  • Мулан / Mulan (Тони Бэнкрофт, Барри Кук, анимация, приключения, 1998 г.) [D ...
  • [Дилогия] Мулан 1-2 / Mulan 1-2 (Тони Бэнкрофт, Даррел Руни, Линн Сауферлэн ...
  • Легенда о МорДу / The Legend of MorDu (Брайан Ларсен, Короткометражный, ска ...
  • Мулан 2 / Mulan II (Даррел Руни, Линн Сауферлэнд, мультфильм, мюзикл, боеви ...
  • Боец из трущоб / Gutter King (Кейт Алан Моррис / Keith Alan Morris, боевик, ...
  • Мулан / Mulan (Тони Бэнкрофт, Бэрри Кук, драма, приключения, семейный, муль ...
  • [PSP VIDEO] Мулан / Mulan (мультфильм, 1998) [DVDRip, дублированный]
  • Мулан 2 / Mulan 2 (Даррел Руни, Линн Саузерлэнд, мультфильм, комедия, семей ...
  • Приключения Тинтина: Тайна Единорога / The Adventures of Tintin (Стивен Спи ...
  • Гениальный папа / Father of Invention (Трент Купер, Драма, комедия, 2010) [ ...
  • Мулан / Mulan (Тони Бэнкрофт, Бэрри Кук, мультфильм, драма, приключения, 19 ...
  • Сдохни, Джон Такер / John Tucker Must Die (Бетти Томас, мелодрама, комедия, ...
  • Информация
    Посетители, находящиеся в группе Гости, не могут оставлять комментарии к данной публикации.