вход на сайт

Имя пользователя :
Пароль :

Восстановление пароля Регистрация
Ральф / Wreck-It Ralph (Рич Мур, Мультфильм, комедия, семейный, 2012) [BDRip-AVC, Профессиональный (полное дублирование) + Оригинал (английский) + Sub]
Рейтинг:
(голосов: 1)



[img]{THEME}/images/logopost.png[/img]



• Ральф / Wreck-It Ralph •
«Хорошего друга должно быть много»

Год выпуска: 2012
Страна: США
Производство: Walt Disney Animation Studios
Жанр: Мультфильм, комедия, семейный

Режиссёр: Рич Мур
В ролях: Джон Си Райли, Джейн Линч, Деннис Хейсбёрт, Сара Силверман, Стефани Скотт, Брэндон Т. Джексон, Джек МакБрайер, Скайлар Эстин, Скотт Менвилль, Джек Эйнджел

Перевод: Профессиональный (полное дублирование) + Оригинал (английский)
Субтитры: Русские, Английские UTF-8 (full)

Описание: Ральф — второстепенный персонаж восьмибитной компьютерной игры, и ему надоело находиться в тени главного героя, мастера на все руки Феликса, который всегда появляется, чтобы «исправить» ситуацию! После тридцати лет добросовестной работы в роли злодея, в течение которых все похвалы выпадали на долю Феликса, Ральф больше не хочет быть плохим. Он решает отправиться в путешествие по аркадным играм разных жанров, чтобы доказать всем, что и он тоже может быть героем. На своем пути Ральф встречает героев разных игр — хладнокровную сержанта Калхун из игры Hero’s Duty, оберегающую планету от нашествия инопланетных захватчиков, и сладкую на вид, но острую на язычок Сластену фон Дю, чье существование в гоночном симуляторе Sugar Rush внезапно оказывается под угрозой. Наконец-то Ральфу выпадает шанс показать, что он умеет не только разрушать!Дата премьеры (мир): 1 ноября 2012
Дата премьеры (РФ): 1 ноября 2012, «WDSSPR»

Релиз от:
Автор рипа: AVT83

Качество: BDRip-AVC |Сэмпл
Продолжительность: 01:41:13


Формат: MKV
Видео кодек: H.264
Аудио кодек: AC3
Видео: H.264, 1280x536 (2,40:1), 23,976 fps, 2711 Кbps, 0.165 bit/pixel
Аудио#1: 48 kHz, AC3 Dolby Digital, 3/2 (L,C,R,l,r) + LFE ch, ~384.00 kbps avg | RUS
Аудио#2: 48 kHz, AC3 Dolby Digital, 3/2 (L,C,R,l,r) + LFE ch, ~384.00 kbps avg | ENG


MediaInfo ▼TextGeneral
Format : Matroska
Format version : Version 2
File size : 2.46 GiB
Duration : 1h 41mn
Overall bit rate : 3 482 Kbps
Movie name : [email protected]
Encoded date : UTC 2013-02-26 01:30:08
Writing application : mkvmerge v4.0.0 (The Stars were mine) built on Jun 6 2010 16:18:42
Writing library : libebml v1.0.0 + libmatroska v1.0.0

Video
ID : 1
Format : AVC
Format/Info : Advanced Video Codec
Format profile : [email protected]
Format settings, CABAC : Yes
Format settings, ReFrames : 12 frames
Codec ID : V_MPEG4/ISO/AVC
Duration : 1h 41mn
Bit rate : 2 711 Kbps
Width : 1 280 pixels
Height : 536 pixels
Display aspect ratio : 2.40:1
Frame rate : 23.976 fps
Color space : YUV
Chroma subsampling : 4:2:0
Bit depth : 8 bits
Scan type : Progressive
Bits/(Pixel*Frame) : 0.165
Stream size : 1.87 GiB (76%)
Writing library : x264 core 119 r2106 07efeb4
Encoding settings : cabac=1 / ref=12 / deblock=1:-1:-1 / analyse=0x3:0x113 / me=umh / subme=11 / psy=1 / psy_rd=0.85:0.10 / mixed_ref=1 / me_range=32 / chroma_me=1 / trellis=2 / 8x8dct=1 / cqm=0 / deadzone=21,11 / fast_pskip=0 / chroma_qp_offset=-3 / threads=6 / sliced_threads=0 / nr=0 / decimate=0 / interlaced=0 / bluray_compat=0 / constrained_intra=0 / bframes=9 / b_pyramid=2 / b_adapt=2 / b_bias=0 / direct=3 / weightb=1 / open_gop=0 / weightp=2 / keyint=240 / keyint_min=24 / scenecut=40 / intra_refresh=0 / rc=2pass / mbtree=0 / bitrate=2711 / ratetol=1.0 / qcomp=0.65 / qpmin=0 / qpmax=69 / qpstep=4 / cplxblur=20.0 / qblur=0.5 / ip_ratio=1.40 / pb_ratio=1.30 / aq=1:0.90
Language : English
Default : No
Forced : No

Audio #1
ID : 2
Format : AC-3
Format/Info : Audio Coding 3
Mode extension : CM (complete main)
Format settings, Endianness : Big
Codec ID : A_AC3
Duration : 1h 41mn
Bit rate mode : Constant
Bit rate : 384 Kbps
Channel(s) : 6 channels
Channel positions : Front: L C R, Side: L R, LFE
Sampling rate : 48.0 KHz
Bit depth : 16 bits
Compression mode : Lossy
Stream size : 278 MiB (11%)
Title : Дубляж R5
Language : Russian
Default : Yes
Forced : No

Audio #2
ID : 3
Format : AC-3
Format/Info
541a7f0e330acebe453125d378b5453d42082712Ральф / Wreck-It Ralph (Рич Мур, Мультфильм, комедия, семейный, 2012) [BDRip-AVC, Профессиональный (полное дублирование) + Оригинал (английский) + Sub] Ральф / Wreck-It Ralph (Рич Мур, Мультфильм, комедия, семейный, 2012) [BDRip-AVC, Профессиональный (полное дублирование) + Оригинал (английский) + Sub] " />

Аплоадер: Админ, дата: 26-02-2013, 17:56, торрент скачан: 359 раз

Понравилась раздача? Посмотрите эти:
  • Ральф / Wreck-It Ralph (Рич Мур, Мультфильм, комедия, приключения, семейный ...
  • Ральф / Wreck-It Ralph (Рич Мур, мультфильм, комедия, приключения, семейный ...
  • Ральф / Wreck-It Ralph (Рич Мур, мультфильм, комедия, приключения, семейный ...
  • Ральф / Wreck-It Ralph (Рич Мур, мультфильм, комедия, приключения, семейный ...
  • Ральф / Wreck-It Ralph (Рич Мур, Мультфильм, комедия, семейный, 2012) [BDRi ...
  • Ральф / Wreck-It Ralph (Рич Мур, Мультфильм, комедия, семейный, 2012) [BDRi ...
  • Ральф / Wreck-It Ralph (Рич Мур, Мультфильм, комедия, семейный, 2012) [BDRi ...
  • Ральф / Wreck-It Ralph (Рич Мур, Мультфильм, комедия, семейный, 2012) [DVD9 ...
  • Ральф / Wreck-It Ralph (Рич Мур, Мультфильм, комедия, семейный, 2012) [BDRi ...
  • Ральф / Wreck-It Ralph (Рич Мур, Мультфильм, комедия, семейный, 2012) [BDRi ...
  • Ральф / Wreck-It Ralph (Рич Мур, Мультфильм, комедия, семейный, 2012) [BDRi ...
  • Ральф / Wreck-It Ralph (Рич Мур, Мультфильм, Приключения, 2012) [BDRemux 10 ...
  • Ральф / Wreck-It Ralph (Рич Мур, Мультфильм, комедия, семейный, 2012) [HDRi ...
  • Ральф / Wreck-It Ralph (Рич Мур, Мультфильм, комедия, семейный, 2012) [BDRi ...
  • Ральф / Wreck-It Ralph (Рич Мур, Мультфильм, комедия, семейный, 2012) [HDRi ...
  • Ральф / Wreck-It Ralph (Рич Мур, Мультфильм, комедия, семейный, 2012) [BDRi ...
  • Ральф / Wreck-It Ralph (Рич Мур, Мультфильм, комедия, семейный, 2012) [BDRi ...
  • Ральф / Wreck-It Ralph (Рич Мур, Мультфильм, комедия, семейный, 2012) [480x ...
  • Ральф / Wreck-It Ralph (Рич Мур, Мультфильм, комедия, семейный, 2012) [HDRi ...
  • [Трейлер #1] Ральф-разрушитель / Wreck-It Ralph (Рич Мур, мультфильм) [HDRi ...
  • Информация
    Посетители, находящиеся в группе Гости, не могут оставлять комментарии к данной публикации.