вход на сайт

Имя пользователя :
Пароль :

Восстановление пароля Регистрация
Скуби-Ду! Маска голубого сокола / Scooby-Doo! Mask of the Blue Falcon (Майкл Гогуэн, мультфильм, приключения, семейный, 2012) [BDRip-AVC, Профессиональный (дублированный)]
Рейтинг:
(голосов: 1)



[img]{THEME}/images/logopost.png[/img]



Скуби-Ду! Маска голубого сокола / Scooby-Doo! Mask of the Blue Falcon

Год выпуска: 2012
Страна: США
Производство: Warner Home Video
Жанр: мультфильм, приключения, семейный

Режиссёр: Майкл Гогуэн
В ролях: Фрэнк Уэлкер, Мэттью Лиллард, Грей Делайл и Минди Кон

Перевод: Профессиональный (дублированный)
Субтитры: Отсутствуют

Описание: Когда ужасный злодей мистер Хайд выпускает летучих мышей-монстров, воющих гончих и зловещую слизь на праздник, наступает время для Корпорации Тайны — разгадывать загадки и расставлять ловушки на монстров.

Но наевшаяся пиццы, супер-заряженная команда Шегги и Скуби-Ду должны раскрыть в себе внутренних супергероев, чтобы остановить эту удушающую, омерзительную зеленую слизь!



Качество: BDRip-AVC | Сэмпл
Продолжительность: 01:16:29

Формат: MKV
Видео кодек: x.264
Аудио кодек: AC3
Видео: x.264 / 1024x576 / 16:9 / 2537 kbps / 23,976 fps / 0,179 bit/pixel
Аудио: 48 kHz, AC3 Dolby Digital, 3/2 (L,C,R,l,r) + LFE ch, ~192 kbps

Премьера (мир): 15 декабря 2012
релиз на DVD: 28 февраля 2013, «CP Дистрибуция»

Media Info ▼General
Unique ID : 172198270671862295951227872179151392973 (0x818C2E3AE00B1D48BDDBE244395F50CD)
Complete name : G:scoobidu.mask.of.blue.falcon.2012.BDRip_AVC.mkv
Format : Matroska
Format version : Version 2
File size : 1.46 GiB
Duration : 1h 16mn
Overall bit rate : 2 731 Kbps
Encoded date : UTC 2013-05-21 01:07:24
Writing application : mkvmerge v6.1.0 (Old Devil) built on Mar 2 2013 14:32:37
Writing library : libebml v1.3.0 + libmatroska v1.4.0

Video
ID : 1
Format : AVC
Format/Info : Advanced Video Codec
Format profile : [email protected]
Format settings, CABAC : Yes
Format settings, ReFrames : 14 frames
Codec ID : V_MPEG4/ISO/AVC
Duration : 1h 16mn
Bit rate : 2 537 Kbps
Width : 1 024 pixels
Height : 576 pixels
Display aspect ratio : 16:9
Frame rate mode : Constant
Frame rate : 23.976 fps
Color space : YUV
Chroma subsampling : 4:2:0
Bit depth : 8 bits
Scan type : Progressive
Bits/(Pixel*Frame) : 0.179
Stream size : 1.33 GiB (91%)
Writing library : x264 core 130 r2273 b3065e6
Encoding settings : cabac=1 / ref=14 / deblock=1:-1:-2 / analyse=0x3:0x133 / me=umh / subme=10 / psy=1 / psy_rd=1.00:0.00 / mixed_ref=1 / me_range=32 / chroma_me=1 / trellis=2 / 8x8dct=1 / cqm=0 / deadzone=21,11 / fast_pskip=1 / chroma_qp_offset=-2 / threads=6 / lookahead_threads=1 / sliced_threads=0 / nr=10 / decimate=1 / interlaced=0 / bluray_compat=0 / constrained_intra=0 / bframes=8 / b_pyramid=2 / b_adapt=2 / b_bias=0 / direct=3 / weightb=1 / open_gop=0 / weightp=2 / keyint=240 / keyint_min=23 / scenecut=40 / intra_refresh=0 / rc_lookahead=70 / rc=2pass / mbtree=1 / bitrate=2537 / ratetol=1.0 / qcomp=0.60 / qpmin=7 / qpmax=51 / qpstep=4 / cplxblur=20.0 / qblur=0.5 / vbv_maxrate=62500 / vbv_bufsize=78125 / nal_hrd=none / ip_ratio=1.40 / aq=1:1.00
Default : Yes
Forced : No

Audio
ID : 2
Format : AC-3
Format/Info : Audio Coding 3
Mode extension : CM (complete main)
Format settings, Endianness : Big
Codec ID : A_AC3
Duration : 1h 16mn
Bit rate mode : Constant
Bit rate : 192 Kbps
Channel(s) : 2 channels
Channel positions : Front: L R
Sampling rate : 48.0 KHz
Bit depth : 16 bits
Compression mode : Lossy
Stream size : 105 MiB (7%)
Language : Russian
Default : Yes
Forced : No



Наши рипы | Набор в РГ | Стол заказов РГ | Новости РГ



be9860b284c58d5d358741e5056ba8940d4c595eСкуби-Ду! Маска голубого сокола / Scooby-Doo! Mask of the Blue Falcon (Майкл Гогуэн, мультфильм, приключения, семейный, 2012) [BDRip-AVC, Профессиональный (дублированный)] Скуби-Ду! Маска голубого сокола / Scooby-Doo! Mask of the Blue Falcon (Майкл Гогуэн, мультфильм, приключения, семейный, 2012) [BDRip-AVC, Профессиональный (дублированный)] " />

Аплоадер: Админ, дата: 22-05-2013, 00:16, торрент скачан: 359 раз

Понравилась раздача? Посмотрите эти:
  • Каньоны / The Canyons (Пол Шредер, триллер, драма, 2013) [BDRip AVC, Дублир ...
  • FLO / NRG [2012, Pop, Dance, MasterRip]
  • Иллюзия обмана / Now You See Me [Theatrical Cut] (Луи Летерье / Louis Leter ...
  • Властелин любви / The Look of Love (Майкл Уинтерботтом, драма, комедия, био ...
  • Хроника / Chronicle (Джошуа Транк, фантастика, боевик, триллер, драма, 2012 ...
  • Соучастник / Collateral (Майкл Манн, Триллер, драма, криминал, 2004) [BDRip ...
  • UFC The Ultimate 100 Knockouts - PPV [MMA,2013, HDTVRip 720p]
  • UFC - Best Of 2012 Year In Review[MMA,2013, BDRip 540p]
  • Скуби-Ду! Маска голубого сокола / Scooby-Doo! Mask of the Blue Falcon (Майк ...
  • Скуби-Ду! Маска Синего Сокола / Scooby-Doo! Mask Of The Blue Falcon (Оливье ...
  • Скуби-Ду! Маска синего сокола / Scooby-Doo! Mask of the Blue Falcon (Оливье ...
  • Зубная фея 2 / Tooth Fairy 2 (Алекс Замм, комедия, семейный, 2012) [BDRip 7 ...
  • Скуби-Ду 3: Тайна начинается / Scooby-Doo! The Mystery Begins (Брайан Леван ...
  • Футбольный клуб / Чемпионат Европы 2012 / НТВ+ [Футбол, 08.06.2012, HDTVRip ...
  • Чемпионат Европы 2012 / 1/4 финала / Чехия - Португалия / Спорт 1 HD [Футбо ...
  • Чемпионат Европы 2012 / 1/2 финала / Португалия - Испания / Спорт 1 HD [Фу ...
  • Чемпионат Европы 2012 / 1/2 финала / Германия - Италия / Спорт 1 HD [Футбо ...
  • Chelsea - Season Review 2011-12 / Челси - Обзор Сезона 2011-12 [ Футбол, 20 ...
  • Mylene Farmer / Du Temps [2011, Pop, HDTVRip]
  • Mylene Farmer / Bleu Noir [2011, Pop, HDTVRip]
  • Информация
    Посетители, находящиеся в группе Гости, не могут оставлять комментарии к данной публикации.