вход на сайт

Имя пользователя :
Пароль :

Восстановление пароля Регистрация
Лего: Звёздные войны - Награда бомбада / LEGO: Star wars - Вombad Bounty (Педер Педерсен, мультфильм, короткометражка, фантастика, комедия, 2010) [WEB-DL 720p, DUB + VO + ENG]
Рейтинг:
(голосов: 1)



[img]{THEME}/images/logopost.png[/img]



Лего: Звёздные войны - Награда бомбада / LEGO: Star wars - Вombad Bounty
-



Год выпуска: 2010
Страна: Дания
Производство: M2Film
Жанр: мультфильм, короткометражка, фантастика, комедия

Режиссер: Педер Педерсен
В ролях: -

Перевод: Профессиональный (дублированный) + одноголосый, закадровый (Pr0peLLer) + Оригинал
Субтитры: Русские субтитры

Описание: В новом измерении звёздных войн, построенных из конструктора LEGO, всё маленькое, милое и забавное. И кто бы мог подумать, что мокрая швабра Джа Джа Бинкса, станет причиной крушения великого Лорда Вейдера?


MediaInfo ▼TextОбщее
Уникальный идентификатор : 186019250780566821304890182111304044084 (0x8BF20128F2DC88E1BAF949E9058F4E34)
Полное имя : D:Лего Звёздные войныLEGO. Star wars - Bombad bounty.2010.WEB-DL 720p VO Rus Sub.mkv
Формат : Matroska
Версия формата : Version 2
Размер файла : 193 Мбайт
Продолжительность : 5 м. 0 с.
Общий поток : 5387 Кбит/сек
Дата кодирования : UTC 2012-05-17 21:49:38
Программа кодирования : mkvmerge v4.9.1 (Ich will) сборка от Jul 11 2011 23:53:15
Библиотека кодирования : libebml v1.2.1 + libmatroska v1.1.1

Видео
Идентификатор : 1
Формат : AVC
Формат/Информация : Advanced Video Codec
Профиль формата : [email protected]
Параметр CABAC формата : Нет
Параметр ReFrames формата : 2 кадра
Идентификатор кодека : V_MPEG4/ISO/AVC
Продолжительность : 5 м. 0 с.
Битрейт : 4936 Кбит/сек
Ширина : 1280 пикселей
Высота : 720 пикселей
Соотношение сторон : 16:9
Частота кадров : 25,000 кадров/сек
Цветовое пространство : YUV
Субдискретизация насыщенности : 4:2:0
Битовая глубина : 8 бит
Тип развёртки : Прогрессивная
Бит/(Пиксели*Кадры) : 0.214
Язык : English
Default : Да
Forced : Нет
Основные цвета : BT.709-5, BT.1361, IEC 61966-2-4, SMPTE RP177
Характеристики трансфера : BT.709-5, BT.1361
Коэффициенты матрицы : BT.709-5, BT.1361, IEC 61966-2-4 709, SMPTE RP177

Аудио #1
Идентификатор : 2
Формат : AC-3
Формат/Информация : Audio Coding 3
Расширение режима : CM (complete main)
Параметр Endianness формата : Big
Идентификатор кодека : A_AC3
Продолжительность : 5 м. 1 с.
Вид битрейта : Постоянный
Битрейт : 224 Кбит/сек
Каналы : 2 канала
Расположение каналов : Front: L R
Частота : 48,0 КГц
Битовая глубина : 16 бит
Метод сжатия : С потерями
Размер потока : 8,06 Мбайт (4%)
Заголовок : DUB
Язык : Russian
Default : Да
Forced : Да

Аудио #2
Идентификатор : 2
Формат : AC-3
Формат/Информация : Audio Coding 3
Расширение режима : CM (complete main)
Идентификатор кодека : A_AC3
Продолжительность : 5 м. 0 с.
Вид битрейта : Постоянный
Битрейт : 192 Кбит/сек
Каналы : 2 канала
Расположение каналов : Front: L R
Частота : 48,0 КГц
Битовая глубина : 16 бит
Метод сжатия : С потерями
Размер потока : 6,87 Мбайт (4%)
Заголовок : VO (Pr0peLLer)
Язык : Russian
Default : Да
Forced : Да

Аудио #3
Идентификатор : 3
Формат : AAC
Формат/Информация : Advanced Audio Codec
Профиль формата : LC
Идентификатор кодека : A_AAC
Продолжительность : 5 м. 0 с.
Битрейт : 256 Кбит/сек
Каналы : 2 канала
Расположение каналов : Front: L R
Частота : 44,1 КГц
Метод сжатия : С потерями
Заголовок : ENG
Язык : English
Default : Нет
Forced : Нет

Текст
Идентификатор : 4
Формат : UTF-8
Идентификатор кодека : S_TEXT/UTF8
Идентификатор кодека/Информация : UTF-8 Plain Text
Заголовок : Rus Sub (Demiurg.e)
Язык : Russian
Default : Да
Forced
5b473236974509375f5b7524644e22a7f22102d7Лего: Звёздные войны - Награда бомбада / LEGO: Star wars - Вombad Bounty (Педер Педерсен, мультфильм, короткометражка, фантастика, комедия, 2010) [WEB-DL 720p, DUB + VO + ENG] Лего: Звёздные войны - Награда бомбада / LEGO: Star wars - Вombad Bounty (Педер Педерсен, мультфильм, короткометражка, фантастика, комедия, 2010) [WEB-DL 720p, DUB + VO + ENG] " />

Аплоадер: Админ, дата: 2-06-2013, 21:18, торрент скачан: 359 раз

Понравилась раздача? Посмотрите эти:
  • Лего Звездные войны: Падаванская угроза / Lego Star Wars: The Padawan Menac ...
  • Лего: Звездные войны: Империя наносит удар / Lego: Star wars: The Empire st ...
  • Звездные войны: Сага / Star Wars: The Complete Saga (Джордж Лукас, Ирвин Ке ...
  • Безумные мелодии: Кажется я видел котика / Looney Tunes: I Tawt I Taw а Pud ...
  • Звездные войны. Эпизоды I-VI / Star Wars. Episodes I-VI (Джордж Лукас / Geo ...
  • Лего: Звёздные войны — Падаванская угроза!.. / LEGO: Star Wars — The Padawa ...
  • Лего Звездные Войны: Падаванская Угроза / LEGO Star Wars: The Padawan Menac ...
  • Большой Бак / Big Buck Bunny (Саша Гэдегебуре, мультфильм, короткометражка ...
  • Лего Звёздные войны - Награда бомбада / LEGO: Star wars - Вombad Bounty (Пе ...
  • Лего Звездные войны: Поиск R2-D2 / LEGO Star Wars: The Quest for R2-D2 (Пед ...
  • Лего Звездные войны: Поиск R2-D2 / LEGO Star Wars: The Quest for R2-D2 (Пед ...
  • Лего Звездные войны: Падаванская угроза / Lego Star Wars: The Padawan Menac ...
  • Скрат: Потерянный орех / Scrat: Gone Nutty (Carlos Saldanha, мультфильм, к ...
  • Скарат: Не время для орехов / Scrat: No Time For Nuts (Крис Рено, Майк Тёр ...
  • Сид, инструкция по выживанию / Surviving Sid (Гален Т. Чу, Карен Дишер, мул ...
  • Лего Звездные войны: Империя наносит удар / Lego Star wars: The Empire stri ...
  • Картинки к сериалу Звёздные Войны: Войны Клонов (Star Wars: The Clone Wars) ...
  • Лего: Индиана Джонс в поисках утраченной детали / LEGO: Indiana Jones and t ...
  • [EN] Шон Уильямс. Звездные войны: Сила необузданная II / Sean Williams. Sta ...
  • Лего Звездные войны: Поиск R2-D2 / LEGO Star Wars: The Quest for R2-D2 (Пед ...
  • Информация
    Посетители, находящиеся в группе Гости, не могут оставлять комментарии к данной публикации.