вход на сайт

Имя пользователя :
Пароль :

Восстановление пароля Регистрация
Аэротачки / Sky Force 3D (Тони Тэнг, мультфильм, 2012) [HDRip, Дублированный]
Рейтинг:
(голосов: 1)



[img]{THEME}/images/logopost.png[/img]



Аэротачки / Sky Force 3D
------



Год выпуска: 2012
Страна: США, Гонконг
Производство: Limelight Animation Studios, T-Films
Жанр: мультфильм

Режиссер: Тони Тэнг
В ролях: Джон С. Флинн, Хезер Гордон, Аарон Кребс

Перевод: Дублированный
Субтитры: Отсутствуют

Описание: В большой и дружной команде самолетов маленький Тинни никак не может добиться признания. Чтобы в глазах окружающих стать настоящим героем, он, наперекор Капитану Бену, отправляется в одиночку спасать жителей города от пожара. Жизнь Тинни оказывается под угрозой, но его спасает Капитан Бен ценой своей жизни. Чувство вины и страх снова подняться в воздух заставляет Тинни покинуть команду и отправиться работать на шахту. И только жуткий пожар, вспыхнувший в шахте, разбудил в Тинни старые инстинкты. Спасая своих друзей, он осознает свое истинное призвание и возвращается к команде пожарных самолетов, преодолевая свой страх высоты ради безопасности родного города.



Дата премьеры (мир): 22 апреля 2012
Дата премьеры (РФ): 11 октября 2012, «Top Film Distribution», «All Media»

МедиаИнфо ▼Text

D:Aerotachki.2012.D.HDRip.700Mb.avi
General
Complete name : D:Aerotachki.2012.D.HDRip.700Mb.avi
Format : AVI
Format/Info : Audio Video Interleave
File size : 698 MiB
Duration : 1h 21mn
Overall bit rate : 1 204 Kbps
Writing application : VirtualDubMod 1.5.10.3 | www.virtualdub-fr.org || (build 2550/release)
Writing library : VirtualDubMod build 2550/release
Video #0
ID : 0
Format : MPEG-4 Visual
Format profile : Advanced [email protected]
Format settings, BVOP : Yes
Format settings, QPel : No
Format settings, GMC : No warppoints
Format settings, Matrix : Custom
Codec ID : XVID
Codec ID/Hint : XviD
Duration : 1h 21mn
Bit rate : 1 067 Kbps
Width : 640 pixels
Height : 352 pixels
Display aspect ratio : 16:9
Frame rate : 23.976 fps
Color space : YUV
Chroma subsampling : 4:2:0
Bit depth : 8 bits
Scan type : Progressive
Compression mode : Lossy
Bits/(Pixel*Frame) : 0.198
Stream size : 618 MiB (89%)
Writing library : XviD 1.2.1 (UTC 2008-12-04)
Audio #1
ID : 1
Format : MPEG Audio
Format version : Version 1
Format profile : Layer 3
Codec ID : 55
Codec ID/Hint : MP3
Duration : 1h 21mn
Bit rate mode : Constant
Bit rate : 128 Kbps
Channel(s) : 2 channels
Sampling rate : 48.0 KHz
Compression mode : Lossy
Stream size : 74.2 MiB (11%)
Alignment : Aligned on interleaves
Interleave, duration : 42 ms (1.00 video frame)
Interleave, preload duration : 504 ms
Writing library : LAME3.99r
Encoding settings : -m s -V 4 -q 2 -lowpass 17 -b 128



Качество: HDRip
Продолжительность: 01:21:00

Формат: AVI
Видео кодек: XviD
Аудио кодек: MP3
Видео: 640x352 (1.82:1), 23.976 fps, XviD build 50 ~1066 kbps avg, 0.20 bit/pixel
Аудио: 48 kHz, MPEG Layer 3, 2 ch, ~128.00 kbps avg





a9e0eb9cb3235f9e6920af64368ce71bb77c1b04Аэротачки / Sky Force 3D (Тони Тэнг, мультфильм, 2012) [HDRip, Дублированный] Аэротачки / Sky Force 3D (Тони Тэнг, мультфильм, 2012) [HDRip, Дублированный] " />

Аплоадер: Админ, дата: 5-09-2013, 22:20, торрент скачан: 359 раз

Понравилась раздача? Посмотрите эти:
  • Погнали! / Getaway (Кортни Соломон, Боевик,Криминал, 2013) [HDRip, Професси ...
  • Аэротачки / Sky Force 3D (Тони Тэнг, мультфильм, 2012) [HDRip, Дублированны ...
  • Решала (Роман Асхаев, Драма,Криминал, 2012) [WEB-DLRip, Не требуется]
  • 12 раундов: Перезагрузка / 12 Rounds: Reloaded (Роэль Рейн, Боевик, 2013) [ ...
  • Магазин самоубийств / Le magasin des suicides (Патрис Леконт, Мультфильм, м ...
  • Скуби-Ду! Маска Синего Сокола / Scooby-Doo! Mask Of The Blue Falcon (Оливье ...
  • Аэротачки / Sky Force 3D (Тони Тэнг, мультфильм, 2012) [DVDRip-AVC, Дубляж ...
  • Чемпионат Европы 2012 / Группа C / 1-й тур / Ирландия — Хорватия / ТРК Футб ...
  • Чемпионат Европы 2012 / Группа D / 1-й тур / Украина - Швеция / Спорт 1 [11 ...
  • Олимпиада 2012 / Мужчины / Группа D / 1-й тур / Испания — Япония / НТВ+ [Фу ...
  • Tank Feat. T.I. & Kris Stephens / Compliments [2012, RnB,Hip-Hop, HDRip]
  • Порочная страсть / Arbitrage (Николас Джареки, триллер, драма, 2012) [HDRip ...
  • Холостячки / Bachelorette (Лесли Хэдланд, комедия, 2012) [HDRip, Дубляж]
  • Аэротачки / Sky Force 3D (Тони Тэнг, мультфильм, 2012) [DVD5 R5, Дубляж]
  • Чемпионат Европы 2012 / Группа B / 1-й тур / Германия - Португалия / Спорт ...
  • Товарищеский матч 2012 / АмаЗулу (ЮАР) - Манчестер Юнайтед (Англия) / MU TV ...
  • Олимпиада 2012 / Женщины, Мужчины / Плавание / Квалификация / НТВ+ [30.07.2 ...
  • Искажение / Skew (Сейв Челенз, ужасы, триллер, 2011) [HDRip, Профессиональн ...
  • Аэротачки / Sky Force 3D (Тони Тэнг, мультфильм, 2012) [DVDRip, Дублированн ...
  • Аэротачки / Sky Force 3D (Тони Тэнг, мультфильм, 2012) [DVDRip, Профессиона ...
  • Информация
    Посетители, находящиеся в группе Гости, не могут оставлять комментарии к данной публикации.