вход на сайт

Имя пользователя :
Пароль :

Восстановление пароля Регистрация
Блэки летит на Луну / Black to the Moon (Франсис Нилсен, мультфильм, комедия, приключения, 2013) [DVDRip, Дублированный]
Рейтинг:
(голосов: 1)



[img]{THEME}/images/logopost.png[/img]



Блэки летит на Луну/Black to the Moon
------



Год выпуска: 2013
Страна: Испания, Италия, Франция
Производство: Baleuko, Lumiq Studios, Film Investment Piedmont, ArtMell и Talape
Жанр: мультфильм, комедия, приключения

Режиссер: Франсис Нилсен
В ролях: Кристина Хьюз, Питер Хадсон, Брайан Вермейр, Кэролин Фаллин, Бобби Джексон

Перевод: Дублированный
Субтитры: Отсутствуют

Описание: Блеки - черная овечка, настоящее бедствие для всей фермы. Она отличается цветом от других овец и очень этим гордится. Не смотря на то, что она неугомонная и невыносимая, ее соседи животные помогают ей в осуществлении ее мечты. А мечта ее - полететь на Луну. На этой же ферме есть пес по имени Кануто. Его работа охранять овец. Сейчас он мечтает о том, чтоб стать лучшим из лучших охранником овец. Но как такой мирный и спокойный пес мог влюбиться в такую "бешеную" овечку? Вместе они пройдут все препятствия и приключения, которые встретятся им на пути к преодолению мечты Блэки.



Премьера (мир): 15 февраля 2013, ...
Премьера (РФ): 6 июня 2013, «Cinema Prestige»

МедиаИнфо ▼Text

D:Bleki.letit.na.lunu.2013.D.DVDRip.745MB.avi
General
Complete name : D:Bleki.letit.na.lunu.2013.D.DVDRip.745MB.avi
Format : AVI
Format/Info : Audio Video Interleave
File size : 745 MiB
Duration : 1h 17mn
Overall bit rate : 1 349 Kbps
Writing application : VirtualDubMod 1.5.10.3 | www.virtualdub-fr.org || (build 2550/release)
Writing library : VirtualDubMod build 2550/release
Video #0
ID : 0
Format : MPEG-4 Visual
Format profile : Advanced [email protected]
Format settings, BVOP : Yes
Format settings, QPel : No
Format settings, GMC : No warppoints
Format settings, Matrix : Custom
Codec ID : XVID
Codec ID/Hint : XviD
Duration : 1h 17mn
Bit rate : 1 211 Kbps
Width : 720 pixels
Height : 400 pixels
Display aspect ratio : 16:9
Frame rate : 25.000 fps
Color space : YUV
Chroma subsampling : 4:2:0
Bit depth : 8 bits
Scan type : Progressive
Compression mode : Lossy
Bits/(Pixel*Frame) : 0.168
Stream size : 669 MiB (90%)
Writing library : XviD 73
Audio #1
ID : 1
Format : MPEG Audio
Format version : Version 1
Format profile : Layer 3
Codec ID : 55
Codec ID/Hint : MP3
Duration : 1h 17mn
Bit rate mode : Constant
Bit rate : 128 Kbps
Channel(s) : 2 channels
Sampling rate : 48.0 KHz
Compression mode : Lossy
Stream size : 70.7 MiB (9%)
Alignment : Aligned on interleaves
Interleave, duration : 40 ms (1.00 video frame)
Interleave, preload duration : 504 ms
Writing library : LAME3.99r
Encoding settings : -m s -V 4 -q 2 -lowpass 17 -b 128



Качество: DVDRip
Продолжительность: 01:17:13

Формат: AVI
Видео кодек: XviD
Аудио кодек: MP3
Видео: 720x400 (1.80:1), 25 fps, XviD build 73 ~1210 kbps avg, 0.17 bit/pixel
Аудио: 48 kHz, MPEG Layer 3, 2 ch, ~128.00 kbps avg





e7c14a2509c88d4f3b628b5f0472066090475a11Блэки летит на Луну / Black to the Moon (Франсис Нилсен, мультфильм, комедия, приключения, 2013) [DVDRip, Дублированный] Блэки летит на Луну / Black to the Moon (Франсис Нилсен, мультфильм, комедия, приключения, 2013) [DVDRip, Дублированный] " />

Аплоадер: Админ, дата: 6-11-2013, 17:59, торрент скачан: 359 раз

Понравилась раздача? Посмотрите эти:
  • Непристойная комедия / InAPPropriate Comedy (Винс Оффер, комедия, 2013) [DV ...
  • Погнали! / Getaway (Кортни Соломон, Боевик,Криминал, 2013) [HDRip, Професси ...
  • Вирус / Flu (Ким Сон Су, Драма, 2013) [HDTVRip, Любительский (двухголосый з ...
  • Орудие смерти / A-i-deul... (Ли Гю Ман, Триллер, криминал, 2011) [DVDRip, П ...
  • Блэки летит на Луну / Black to the Moon (Франсис Нилсен, мультфильм, комеди ...
  • Мэрайа Мунди и шкатулка Мидаса / The Adventurer: The Curse of the Midas Box ...
  • Войны орков / Orc Wars (Кол Гласс, Боевик, 2013) [DVDRip, Профессиональный ...
  • Мужество / Wymyk (Грег Зглински, драма, 2011) [DVDRip, Любительский (одного ...
  • Решала (Роман Асхаев, Драма,Криминал, 2012) [WEB-DLRip, Не требуется]
  • 12 раундов: Перезагрузка / 12 Rounds: Reloaded (Роэль Рейн, Боевик, 2013) [ ...
  • Берлинское дело / The Berlin File (Рю Сын Ван, Боевик, триллер, драма, 2013 ...
  • Колония / The Colony (Джефф Ренфро, фантастика, боевик, триллер, 2013) [DVD ...
  • Чемпионат Германии 2012-2013 / 32-й тур / Обзор матчей / Футбол + (UA) [06. ...
  • Чемпионат Италии 2012-13 / 36-й тур / Рома — Кьево / НТВ+ [07.05.2013, SD, ...
  • Скуби-Ду! Маска Синего Сокола / Scooby-Doo! Mask Of The Blue Falcon (Оливье ...
  • Чемпионат Европы 2012 / Группа C / 1-й тур / Испания - Италия / Россия 1 [Ф ...
  • Чемпионат Европы 2012 / Группа C / 1-й тур / Ирландия — Хорватия / ТРК Футб ...
  • Чемпионат Европы 2012 / Группа D / 1-й тур / Украина - Швеция / Спорт 1 [11 ...
  • Олимпиада 2012 / Мужчины / Группа D / 1-й тур / Испания — Япония / НТВ+ [Фу ...
  • Tank Feat. T.I. & Kris Stephens / Compliments [2012, RnB,Hip-Hop, HDRip]
  • Неделя в NBA с В.Гомельским / НТВ+ [28.06.2011, SD, XviD, RU, SAT]
  • Чемпионат Европы 2012 / Группа B / 1-й тур / Германия - Португалия / Спорт ...
  • Товарищеский матч 2012 / АмаЗулу (ЮАР) - Манчестер Юнайтед (Англия) / MU TV ...
  • Олимпиада 2012 / Женщины, Мужчины / Плавание / Квалификация / НТВ+ [30.07.2 ...
  • Рука-убийца / Idle Hands (Родмен Флендер,ужасы, триллер, комедия, 1999) [HD ...
  • Информация
    Посетители, находящиеся в группе Гости, не могут оставлять комментарии к данной публикации.