вход на сайт

Имя пользователя :
Пароль :

Восстановление пароля Регистрация
Блэки летит на Луну / Black to the Moon (Франсис Нилсен, мультфильм, комедия, приключения, 2013) [DVDRip, Дублированный]
Рейтинг:
(голосов: 1)



[img]{THEME}/images/logopost.png[/img]



Блэки летит на Луну / Black to the Moon
------



Год выпуска: 2013
Страна: Испания, Италия, Франция
Производство: Baleuko, Lumiq Studios, Film Investment Piedmont, ArtMell и Talape
Жанр: мультфильм, комедия, приключения

Режиссер: Франсис Нилсен
В ролях: Кристина Хьюз, Питер Хадсон, Брайан Вермейр, Кэролин Фаллин, Бобби Джексон

Перевод: Дублированный
Субтитры: Отсутствуют

Описание: Блеки - черная овечка, настоящее бедствие для всей фермы. Она отличается цветом от других овец и очень этим гордится. Не смотря на то, что она неугомонная и невыносимая, ее соседи животные помогают ей в осуществлении ее мечты. А мечта ее - полететь на Луну. На этой же ферме есть пес по имени Кануто. Его работа охранять овец. Сейчас он мечтает о том, чтоб стать лучшим из лучших охранником овец. Но как такой мирный и спокойный пес мог влюбиться в такую "бешеную" овечку? Вместе они пройдут все препятствия и приключения, которые встретятся им на пути к преодолению мечты Блэки.



Премьера (мир): 15 февраля 2013, ...
Премьера (РФ): 6 июня 2013, «Cinema Prestige»

МедиаИнфо ▼Text

D:Blacki.letit.na.lunu.2013.D.DVDRip.1400MB.avi
General
Complete name : D:Blacki.letit.na.lunu.2013.D.DVDRip.1400MB.avi
Format : AVI
Format/Info : Audio Video Interleave
File size : 1.46 GiB
Duration : 1h 17mn
Overall bit rate : 2 701 Kbps
Movie name : Blacki.letit.na.lunu.2013.D.DVDRip.1400MB
Director : 1
Genre : Comedy
Writing application : VirtualDubMod 1.5.10.3 | www.virtualdub-fr.org || (build 2550/release)
Original source form/Name : Movie
Copyright : 2
Video #0
ID : 0
Format : MPEG-4 Visual
Format profile : Advanced [email protected]
Format settings, BVOP : Yes
Format settings, QPel : No
Format settings, GMC : No warppoints
Format settings, Matrix : Custom
Codec ID : XVID
Codec ID/Hint : XviD
Duration : 1h 17mn
Bit rate : 2 308 Kbps
Width : 720 pixels
Height : 400 pixels
Display aspect ratio : 16:9
Frame rate : 25.000 fps
Color space : YUV
Chroma subsampling : 4:2:0
Bit depth : 8 bits
Scan type : Progressive
Compression mode : Lossy
Bits/(Pixel*Frame) : 0.320
Stream size : 1.24 GiB (85%)
Writing library : XviD 73
Audio #1
ID : 1
Format : AC-3
Format/Info : Audio Coding 3
Mode extension : CM (complete main)
Codec ID : 2000
Duration : 1h 17mn
Bit rate mode : Constant
Bit rate : 384 Kbps
Channel(s) : 6 channels
Channel positions : Front: L C R, Side: L R, LFE
Sampling rate : 48.0 KHz
Bit depth : 16 bits
Compression mode : Lossy
Stream size : 212 MiB (14%)
Alignment : Split accross interleaves
Interleave, duration : 40 ms (1.00 video frame)
Interleave, preload duration : 500 ms



Качество: DVDRip
Продолжительность: 01:17:13

Формат: AVI
Видео кодек: XviD
Аудио кодек: AC3
Видео: 720x400 (1.80:1), 25 fps, XviD build 73 ~2307 kbps
e1320e093401148b733d95c933e74724de930e98Блэки летит на Луну / Black to the Moon (Франсис Нилсен, мультфильм, комедия, приключения, 2013) [DVDRip, Дублированный] Блэки летит на Луну / Black to the Moon (Франсис Нилсен, мультфильм, комедия, приключения, 2013) [DVDRip, Дублированный] " />

Аплоадер: Админ, дата: 6-11-2013, 17:54, торрент скачан: 359 раз

Понравилась раздача? Посмотрите эти:
  • Непристойная комедия / InAPPropriate Comedy (Винс Оффер, комедия, 2013) [D ...
  • Погнали! / Getaway (Кортни Соломон, Боевик, Криминал, 2013) [HDRip, Професс ...
  • Вирус / Flu (Ким Сон Су, Драма, 2013) [HDTVRip, Любительский (двухголосый з ...
  • Орудие смерти / A-i-deul... (Ли Гю Ман, Триллер, криминал, 2011) [DVDRip, П ...
  • Блэки летит на Луну / Black to the Moon (Франсис Нилсен, мультфильм, комеди ...
  • Марафон (Карен Оганесян, комедия, 2013) [WEB-DLRip, Не требуется]
  • Верное дельце / Une pure affaire (Александр Коффре, Боевик, Комедия, Кримин ...
  • Мои герои / Mes heros (Эрик Беснард, комедия, 2012) [HDRip, Профессиональны ...
  • Икона сезона (Сергей Швыдкой,Драма, комедия, 2013) [DVDRip, Не требуется]
  • Мэрайа Мунди и шкатулка Мидаса / The Adventurer: The Curse of the Midas Box ...
  • Мужество / Wymyk (Грег Зглински, драма, 2011) [DVDRip, Любительский (одного ...
  • 42 / 42 (Брайан Хелгеленд, драма, биография, спорт, 2013) [BDRip, Профессио ...
  • Звук моего голоса / Sound of My Voice (Зал Батманглидж, триллер, драма, 201 ...
  • Слепой поворот / Blind Turn (Роберт Орр, Триллер, драма, детектив, 2012) [W ...
  • Чемпионат Италии 2012-13 / 36-й тур / Рома — Кьево / НТВ+ [07.05.2013, SD, ...
  • Плохая актриса / Bad Actress (Роберт Ли Кинг, комедия, 2011) [DVDRip, Профе ...
  • Три богатыря на дальних берегах (Константин Феоктистов, мультфильм, комедия ...
  • Влюбленные (Валерий Бебко, Комедия, 2011) [DVDRip, Оригинал]
  • Супершторм в Сиэтле / Seattle Superstorm (Джейсон Бурк, фантастика, боевик ...
  • Аэротачки / Sky Force 3D (Тони Тэнг, мультфильм, 2012) [DVDRip, Дублированн ...
  • Информация
    Посетители, находящиеся в группе Гости, не могут оставлять комментарии к данной публикации.