вход на сайт

Имя пользователя :
Пароль :

Восстановление пароля Регистрация
Планета сокровищ / Treasure Planet (Рон Клементс, Джон Маскер, Мультфильм, 2002) [BDRip, Дубляж]
Рейтинг:
(голосов: 1)



[img]{THEME}/images/logopost.png[/img]



Планета сокровищ / Treasure Planet



Год выпуска: 2002
Страна: США
Производство: Walt Disney Feature Animation, Walt Disney Pictures
Жанр: Мультфильм, фантастика, мелодрама, приключения, семейный
Режиссёр: Рон Клементс, Джон Маскер
В ролях: Роско Ли, Браун Кори, Бертон Дэйн, А. Дэвис, Джозеф Гордон-Левитт, Тони Джей, Остин Мэйджерс, Патрик МакГуэн, Майкл МакШейн, Лори Меткаф, Брайан Мюррей
Перевод: Полное Дублирование
Субтитры:Нет

Описание: 16-летний Джим Хоукинс отправляется на поиски таинственной Планеты Сокровищ в компании настоящих космических пиратов. Под руководством корабельного кока, киборга Джона Сильвера, он становится умелым «космоплавателем» и не раз спасает космический галеон от самых серьезных опасностей: черных дыр, взрывов сверхновых и космических штормов.

Качество: BDRip
Продолжительность: 01:35:23.

Формат: AVI
Видео кодек: XviD
Аудио кодек: AC3
Видео: 720x432 (1.67:1), 23.976 fps, XviD 65 ~1 804 kbps avg, 0.24 bit/pixel
Аудио: 48 kHz, AC3, 3/2 (L,C,R,l,r) + LFE ch, ~384.00 kbps avg

"MediaInfo:" ▼General
Complete name : E:ЗагрузкиTreasure.Planet.2002.BDRip.avi
Format : AVI
Format/Info : Audio Video Interleave
File size : 1.46 GiB
Duration : 1h 35mn
Overall bit rate : 2 197 Kbps
Writing application : VirtualDubMod 1.5.10.2 (build 2540/release)
Writing library : VirtualDubMod build 2540/release
Video #0
ID : 0
Format : MPEG-4 Visual
Format profile : Advanced [email protected]
Format settings, BVOP : 1
Format settings, QPel : No
Format settings, GMC : No warppoints
Format settings, Matrix : Custom
Codec ID : XVID
Codec ID/Hint : XviD
Duration : 1h 35mn
Bit rate : 1 804 Kbps
Width : 720 pixels
Height : 432 pixels
Display aspect ratio : 1.667
Frame rate : 23.976 fps
Color space : YUV
Chroma subsampling : 4:2:0
Bit depth : 8 bits
Scan type : Progressive
Compression mode : Lossy
Bits/(Pixel*Frame) : 0.242
Stream size : 1.20 GiB (82%)
Writing library : XviD 65
Audio #1
ID : 1
Format : AC-3
Format/Info : Audio Coding 3
Mode extension : CM (complete main)
Codec ID : 2000
Duration : 1h 35mn
Bit rate mode : Constant
Bit rate : 384 Kbps
Channel(s) : 6 channels
Channel positions : Front: L C R, Side: L R, LFE
Sampling rate : 48.0 KHz
Bit depth : 16 bits
Compression mode : Lossy
Stream size : 262 MiB (17%)
Alignment : Split accross interleaves
Interleave, duration : 42 ms (1.00 video frame)
Interleave, preload duration : 500 ms





5dfaa28c64321fecb1d3ecb47f043d7cd4199769Планета сокровищ / Treasure Planet (Рон Клементс, Джон Маскер, Мультфильм, 2002) [BDRip, Дубляж] Планета сокровищ / Treasure Planet (Рон Клементс, Джон Маскер, Мультфильм, 2002) [BDRip, Дубляж] " />

Аплоадер: Админ, дата: 23-07-2012, 20:29, торрент скачан: 359 раз

Понравилась раздача? Посмотрите эти:
  • Геркулес / Hercules (Рон Клементс, Джон Маскер, мультфильм, мюзикл, фэнтези ...
  • Аладдин / Aladdin (Рон Клементс, Джон Маскер, Мультфильм, мюзикл, фэнтези, ...
  • Геркулес / Hercules (Рон Клементс, Джон Маскер, мультфильм, мюзикл, фэнтези ...
  • Русалочка / The Little Mermaid (Рон Клементс, Джон Маскер, Мультфильм, мюз ...
  • [EN] 42 / 42 (Брайан Хелгеленд, Драма, биография, спорт, 2013) [BDRip, Ориг ...
  • Мужество / Wymyk (Грег Зглински, драма, 2011) [DVDRip, Любительский (одного ...
  • Поймай толстуху, если сможешь [Театральная версия] / Identity Thief [Theatr ...
  • Побег с планеты Земля / Escape from Planet Earth (Каллэн Брункер, мультфиль ...
  • Принцесса и лягушка / The Princess and the Frog (Рон Клементс, Джон Маскер, ...
  • Скуби-Ду! Маска Синего Сокола / Scooby-Doo! Mask Of The Blue Falcon (Оливье ...
  • Планета сокровищ / Treasure Planet (Рон Клементс, Джон Маскер, мультфильм, ...
  • Захват / Carjacked (Джон Бонито, триллер, 2011)[BDRip, Профессиональный (мн ...
  • Планета Сокровищ / Treasure Planet (Рон Клементс, Джон Маскер, мультфильм, ...
  • Планета сокровищ / Treasure Planet (Рон Клементс, Джон Маскер, Мультфильм, ...
  • Геркулес / Hercules (Рон Клементс, Джон Маскер, Мультфильм, 1997 г.)[HDTVRi ...
  • Принцесса и лягушка / The Princess and the Frog (Рон Клементс, Джон Маскер, ...
  • Планета сокровищ / Treasure Planet (Рон Клементс, Джон Маскер, Мультфильм, ...
  • Великий мышиный сыщик / The Great Mouse Detective (Рон Клементс, Барни Мэтт ...
  • Супершторм в Сиэтле / Seattle Superstorm (Джейсон Бурк, фантастика, боевик ...
  • Поймай меня, если сможешь / Catch Me If You Can (Стивен Спилберг, Драма, ко ...
  • Информация
    Посетители, находящиеся в группе Гости, не могут оставлять комментарии к данной публикации.