вход на сайт

Имя пользователя :
Пароль :

Восстановление пароля Регистрация
Экзоиды / Exoids (Аристоменис Тсирбас, мультфильм, короткометражка, фантастика, боевик, военный, 2012) [WEB-DLRip, не требуется]
Рейтинг:
(голосов: 1)



[img]{THEME}/images/logopost.png[/img]



«Экзоиды / Exoids»

¤ Год выпуска: 2012
¤ Страна:США
¤ Производство: Gnomon Studios, MeniThings
¤ Жанр: мультфильм, короткометражка, фантастика, боевик, военный

¤ Режиссёр: Аристоменис Тсирбас
¤ В ролях: Robert C. Nelms

¤ Перевод: не требуется
¤ Субтитры: нет

« Описание »
Канадский режиссер и постановщик Аристоменис Тсирбас (Aristomenis Tsirbas), известный, как создатель фантастического мультфильма «Битва за планету Терра» (Battle for Terra), презентовал свою новую работу. На этот раз, события анимации разворачиваются на Земле, сразу после окончания всеразрушающей ядерной войны. Власть на планете контролируют роботы, получившие название Экзоиды (Exoids). Благодаря радиации, даже моллюски стали разумными. Один из Gus Nitrous путешествует по пустыне и выясняет, что у него закончилась вода. Попытка отыскать воду в Лос-Анджелесе, оккупированном Экзоидами, оборачивается неожиданным столкновением с роботами и погоней.




« Тех.Данные »
¤ Качество: WEB-DLRip
¤ Продолжительность: 00:05:28 часа

¤ Формат: mp4
¤ Видео кодек: AVC [email protected]
¤ Аудио кодек: Advanced Audio Codec
¤ Видео: 1280x544 (2.35:1), 24.00 fps, AVC ~2495 kbps avg, 0.149 bit/pixel
¤ Аудио: 44.100 kHz, Advanced Audio Codec , 2 ch ~ 158.00 kbps avg

MediaInfo ▼TextОбщее
Полное имя : D:DownloadsЭкзоиды.2012.mp4
Формат : MPEG-4
Профиль формата : Base Media
Идентификатор кодека : isom
Размер файла : 104 Мбайт
Продолжительность : 5 м. 28 с.
Режим общего битрейта : Переменный
Общий поток : 2655 Кбит/сек
Дата кодирования : UTC 2012-07-09 00:28:44
Дата пометки : UTC 2012-07-10 00:28:47

Видео
Идентификатор : 1
Формат : AVC
Формат/Информация : Advanced Video Codec
Профиль формата : [email protected]
Параметр CABAC формата : Да
Параметр ReFrames формата : 4 кадра
Идентификатор кодека : avc1
Идентификатор кодека/Информация : Advanced Video Coding
Продолжительность : 5 м. 28 с.
Битрейт : 2495 Кбит/сек
Максимальный битрейт : 7085 Кбит/сек
Ширина : 1280 пикселей
Высота : 544 пикселя
Соотношение сторон : 2,35:1
Режим частоты кадров : Постоянный
Частота кадров : 24,000 кадра/сек
Цветовое пространство : YUV
Субдискретизация насыщенности : 4:2:0
Битовая глубина : 8 бит
Тип развёртки : Прогрессивная
Бит/(Пиксели*Кадры) : 0.149
Размер потока : 97,8 Мбайт (94%)
Библиотека кодирования : Vimeo Encoder
Дата кодирования : UTC 2012-07-09 00:28:44
Дата пометки : UTC 2012-07-09 00:28:46

Аудио
Идентификатор : 2
Формат : AAC
Формат/Информация : Advanced Audio Codec
Профиль формата : LC
Идентификатор кодека : 40
Продолжительность : 5 м. 28 с.
Вид битрейта : Переменный
Битрейт : 158 Кбит/сек
Максимальный битрейт : 276 Кбит/сек
Каналы : 2 канала
Расположение каналов : Front: L R
Частота : 44,1 КГц
Метод сжатия : С потерями
Размер потока : 6,18 Мбайт (6%)
Дата кодирования : UTC 2012-07-09 00:28:46
Дата пометки : UTC 2012-07-09 00:28:46





d046d4c9127e2f4f7c60625dd18f603334a0ba59Экзоиды / Exoids (Аристоменис Тсирбас, мультфильм, короткометражка, фантастика, боевик, военный, 2012) [WEB-DLRip, не требуется] Экзоиды / Exoids (Аристоменис Тсирбас, мультфильм, короткометражка, фантастика, боевик, военный, 2012) [WEB-DLRip, не требуется] " />

Аплоадер: Админ, дата: 22-07-2012, 00:58, торрент скачан: 359 раз

Понравилась раздача? Посмотрите эти:
  • Rita Ora / Shine Ya Light [2012, R&B, Master]
  • Русский Размер / До тебя [2012, Pop, HDRip]
  • Герои / Километры [2012, Pop, HDRip]
  • Герои / Закаты алые [2012, Pop, WebRip]
  • Tonari no kaibutsu kun / Rihanna Diamonds (2012)
  • Miranda Cosgrove / Dancing Crazy [2011, Pop, WEB-DLRip 720p]
  • Yandel / Hable De Ti (La Leyenda) [2013, Dance, Reggaeton, Master]
  • Avril Lavigne / Smile [2011, Pop, HDRip]
  • Charli XCX / Superlove [2013, Pop, Master]
  • Christina Aguilera / Not Myself Tonight [2010, Dance, Pop, Master]
  • Ariana Grande - ft. Mac Miller / The Way [2013, Pop, WEB-DLRip 1080p]
  • Принуждение к прививке / Impf-Zwang (документальный, 2012) [HD 720p, Профес ...
  • В лесу родилась елочка (Борис Бутаков,мультфильм, короткометражка,1972)[DVD ...
  • Дикие собаки / Wild Dogs (Кэтрин Хикс, короткометражный анимационный фильм, ...
  • Чемпионат Англии 2012-2013 / 18-й тур / Челси - Астон Вилла / Спорт 1 [23.1 ...
  • Нонито Донэйр - Хорхе Арсе / Nonito Donaire vs Jorge Arce [Бокс, 15.12.2012 ...
  • Экзоиды / Exoids (Аристоменис Тсирбас, мультфильм, короткометражка, фантаст ...
  • Қайрат Нұртас / Ол сен емес [2012, Pop, WebRip ]
  • Лига Чемпионов 2012-13 / 3-й тур / Группа D / Боруссия Д (Германия) - Реал ...
  • Апрель / Avril (Отар Иоселиани, короткометражка, драма, мелодрама, комедия, ...
  • Информация
    Посетители, находящиеся в группе Гости, не могут оставлять комментарии к данной публикации.