вход на сайт

Имя пользователя :
Пароль :

Восстановление пароля Регистрация
Приключения Тинтина: Тайна Единорога / The Adventures of Tintin (Стивен Спилберг, Мультфильм, 2011) [BDRip, Русский дублированный + Оригинал + SUB]
Рейтинг:
(голосов: 1)



[img]{THEME}/images/logopost.png[/img]



Приключения Тинтина: Тайна Единорога / The Adventures of Tintin
«This year, discover how far adventure will take you.»

Год выпуска: 2011
Страна: США, Новая Зеландия
Производство: Paramount Pictures / Columbia Pictures
Жанр: Мультфильм, Боевик, Детектив, Приключения, Семейный

Режиссёр: Стивен Спилберг
В ролях: Джейми Белл, Энди Серкис, Дэниэл Крэйг, Саймон Пегг, Кэри Элвис, Тоби Джонс, Ник Фрост, Себастьян Роше, Маккензи Крук, Тони Карран.

Перевод: Русский дублированный перевод (Лицензия) + Оригинальная дорожка (Английская)
Субтитры: Русские, русские (Bluebird), русские (Voronine), английские. (внешние, srt*)

Описание: Главный герой — молодой газетный репортёр Тинтин. Благодаря своей профессии он путешествует по всему миру и становится участником увлекательных приключений.



Релиз от:

Сэмпл

Качество: BDRip
Продолжительность: 01:46:52

Формат: AVI
Видео кодек: Xvid
Аудио кодек: AC3
Видео: 720 x 304 (2.35:1), 23.976 fps, 2141 Kbps, 0.408 bit/pixel
Аудио: AC-3, 48.0 KHz, 6 channels, (Front: L C R, Side: L R, LFE), 384 Kbps [Russian]
Аудио: AC-3, 48.0 KHz, 6 channels, (Front: L C R, Side: L R, LFE), 384 Kbps [English]

Дата премьеры (мир): 23 октября 2011
Дата премьеры (РФ): 3 ноября 2011, «WDSSPR»

"MediaInfo" ▼Общее
Полное имя : D:СкачкаPriklyucheniya.Tintina.Taina.Edinoroga.2011.DUAL.BDRip.XviD.AC3.-HQ-ViDEO.aviPriklyucheniya.Tintina.Taina.Edinoroga.2011.DUAL.BDRip.XviD.AC3.-HQ-ViDEO.avi
Формат : AVI
Формат/Информация : Audio Video Interleave
Профиль формата : OpenDML
Размер файла : 2,18 Гбайт
Продолжительность : 1 ч. 46 м.
Общий поток : 2927 Кбит/сек
Название фильма : The Adventures of Tintin (2011)
Режиссёр : Vaippp
Жанр : Action/Adventure
Программа кодирования : VirtualDubModRus 1.5.10.2 (build 2542/release)
Формат оригинала/Имя : Cartoon
Правообладатель : HQ-ViDEO
Примечание : BDRip

Видео
Идентификатор : 0
Формат : MPEG-4 Visual
Профиль формата : Advanced [email protected]
Параметр BVOP формата : 1
Параметр QPel формата : Нет
Параметр GMC формата : Без точки перехода
Параметр матрицы формата : Выборочная
Идентификатор кодека : XVID
Идентификатор кодека/Подсказка : XviD
Продолжительность : 1 ч. 46 м.
Битрейт : 2141 Кбит/сек
Ширина : 720 пикселей
Высота : 304 пикселя
Соотношение сторон : 2,35:1
Частота кадров : 23,976 кадра/сек
Цветовое пространство : YUV
Субдискретизация насыщенности : 4:2:0
Битовая глубина : 8 бит
Тип развёртки : Прогрессивная
Метод сжатия : С потерями
Бит/(Пиксели*Кадры) : 0.408
Размер потока : 1,60 Гбайт (73%)
Библиотека кодирования : XviD 64

Аудио #1
Идентификатор : 1
Формат : AC-3
Формат/Информация : Audio Coding 3
Расширение режима : CM (complete main)
Идентификатор кодека : 2000
Продолжительность : 1 ч. 46 м.
Вид битрейта : Постоянный
Битрейт : 384 Кбит/сек
Каналы : 6 каналов
Расположение каналов : Front: L C R, Side: L R, LFE
Частота : 48,0 КГц
Битовая глубина : 16 бит
Метод сжатия : С потерями
Размер потока : 294 Мбайт (13%)
Выравнивание : Разделение по промежуткам
Продолжительность промежутка : 42 мс. (1,00 видеокадр)
Время предзагрузки промежутка : 500 мс.

Аудио #2
Идентификатор : 2
Формат : AC-3
Формат/Информация : Audio Coding 3
Расширение режима : CM (complete main)
Идентификатор кодека : 2000
Продолжительность : 1 ч. 46 м.
Вид битрейта : Постоянный
Битрейт : 384 Кбит/сек
Каналы : 6 каналов
Расположение каналов : Front: L C R, Side: L R, LFE
Частота : 48,0 КГц
Битовая глубина : 16 бит
Метод сжатия : С потерями
Размер потока : 294 Мбайт (13%)
Выравнивание : Разделение по промежуткам
Продолжительность промежутка : 42 мс. (1,00 видеокадр)
Время предзагрузки промежутка : 500 мс.





d03969b9b473fc6768b29ac611e1176ba58236b4Приключения Тинтина: Тайна Единорога / The Adventures of Tintin (Стивен Спилберг, Мультфильм, 2011) [BDRip, Русский дублированный + Оригинал + SUB] Приключения Тинтина: Тайна Единорога / The Adventures of Tintin (Стивен Спилберг, Мультфильм, 2011) [BDRip, Русский дублированный + Оригинал + SUB] " />

Аплоадер: Админ, дата: 21-03-2012, 15:13, торрент скачан: 359 раз

Понравилась раздача? Посмотрите эти:
  • Бойфренд из будущего / About Time (Ричард Кёртис, Фантастика, драма, комеди ...
  • Одноклассники 2 / Grown Ups 2 (Деннис Дуган, Комедия, 2013) [BDRip, Професс ...
  • Кровью и потом: Анаболики / Pain & Gain (Майкл Бэй, криминал, комедия, трил ...
  • Миллион для чайников / The Brass Teapot (Рамаа Мосли, Фэнтези, триллер, ком ...
  • Астрал на улице Арлетт / 388 Arletta Avenue (Рэндолл Коул, Триллер, 2011) [ ...
  • Приключения Тинтина: Тайна Единорога / The Adventures of Tintin (Стивен Спи ...
  • Жил-был тигр / Ek Tha Tiger (Кабир Кхан, боевик, триллер , 2012) [ HDRip, ...
  • Приключения Икабода и Мистера Тоада / The Adventures Of Ichabod And Mr. Toa ...
  • Приключения Тинтина: Тайна Единорога / The Adventures of Tintin (Стивен Спи ...
  • Приключения Тинтина: Тайна Единорога / The Adventures of Tintin (Стивен Спи ...
  • Приключения Тинтина: Тайна Единорога / The Adventures of Tintin (Стивен Спи ...
  • Приключения Тинтина: Тайна Единорога / The Adventures of Tintin (Стивен Спи ...
  • [3D] Приключения Тинтина: Тайна Единорога 3D / The Adventures of Tintin 3D ...
  • [3D] Приключения Тинтина: Тайна Единорога 3D / The Adventures of Tintin 3D ...
  • Путешествие на дно моря / Voyage to the Bottom of the Sea (Ирвин Аллен / I ...
  • Кажется, я люблю свою жену / I Think I Love My Wife (Крис Рок, Драма, мелод ...
  • Боец из трущоб / Gutter King (Кейт Алан Моррис / Keith Alan Morris, боевик, ...
  • Приключения Тинтина: Тайна Единорога / The Adventures of Tintin (Стивен Спи ...
  • [3D] Приключения Тинтина: Тайна Единорога / The Adventures of Tintin (Стиве ...
  • Приключения Тинтина: Тайна Единорога / The Adventures of Tintin (Стивен Спи ...
  • Гениальный папа / Father of Invention (Трент Купер, Драма, комедия, 2010) [ ...
  • Жизнь за гранью / After.Life (Агнешка Войтович-Восло, Ужасы, триллер, драм ...
  • Глаз шторма / The Eye of the Storm (Фред Скеписи, Драма, 2011) [HDRip, Проф ...
  • Шаг вперед 4 / Step Up Revolution (Скотт Спир, Драма, мелодрама, музыка, 20 ...
  • Сдохни, Джон Такер / John Tucker Must Die (Бетти Томас, мелодрама, комедия, ...
  • Информация
    Посетители, находящиеся в группе Гости, не могут оставлять комментарии к данной публикации.