вход на сайт

Имя пользователя :
Пароль :

Восстановление пароля Регистрация
Волшебное приключение / The Magic Roundabout (Дэйв Бортуик, мультфильм, анимация, приключения, 2005) [BDRip, Профессиональный (двухгоголосый, закадровый)]
Рейтинг:
(голосов: 1)



[img]{THEME}/images/logopost.png[/img]



Волшебное приключение / The Magic Roundabout

Слоган: «Things Are About To Get Hairy»

Год выпуска: 2005
Страна: Франция, Великобритания
Производство: Франко-британский CGI-анимационный проект
Жанр: Мультфильм, анимация, приключения

Режиссёр: Дэйв Бортвик, Жан Дювал, Фрэнк Пэссингем
Роли озвучивали: Том Бэйкер, Джим Броадбент, Ли Эванс, Джоанна Ламли, Йен МакКеллен, Кайли Миноуг, Билл Найи, Робби Уильямс, Рэй Уинстон, Даниелла Лофтус, Эдиз Махмут, Джимми Хибберт

Перевод: Профессиональный (двухгоголосый, закадровый)
Субтитры: Нет

Описание: Злобный волшебник Зибад наслал на Очарованную страну настоящий ледниковый период. И теперь компании отважных друзей необходимо найти три волшебных бриллианта, чтобы повернуть зиму вспять и заточить Зибада в подземелье. Не такая сложная задача, но предстоит ее решить Улитке, Корове, Кролику и Псу!...


Сэмпл

Дополнительная информация ▼Бюджет: $20 000 000
Премьера (мир): 2 февраля 2005
Релиз на DVD: 18 декабря 2008, «CP-Digital»

Качество: BDRip
Продолжительность: 01:21:46

Формат: AVI
Видео кодек: XviD
Аудио кодек: MP3
Видео: 688x368 (1.87:1), 23.976 fps, XviD MPEG-4 ~1 140 kbps avg, 0.189 bit/pixel
Аудио: 48 kHz, MPEG Layer 3, 2 ch, ~128.00 kbps avg

Отчет Media Info ▼
Format : AVI
Format/Info : Audio Video Interleave
File size : 747 MiB
Duration : 1h 21mn
Overall bit rate : 1 277 Kbps
Writing application : VirtualDubMod 1.5.10.2 (build 2540/release)
Writing library : VirtualDubMod build 2540/release

Video
ID : 0
Format : MPEG-4 Visual
Codec ID : XVID
Codec ID/Hint : XviD
Duration : 1h 21mn
Bit rate : 1 150 Kbps
Width : 688 pixels
Height : 368 pixels
Display aspect ratio : 1.870
Frame rate : 24.000 fps
Color space : YUV
Chroma subsampling : 4:2:0
Compression mode : Lossy
Bits/(Pixel*Frame) : 0.189
Stream size : 501 MiB (67%)

Audio
ID : 1
Format : MPEG Audio
Codec ID : 55
Codec ID/Hint : MP3
Duration : 1h 21mn
Bit rate : 128 Kbps
Channel(s) : 2 channels
Sampling rate : 48.0 KHz
Compression mode : Lossy
Stream size : 55.8 MiB (7%)
Alignment : Aligned on interleaves
Interleave, duration : 42 ms (1.00 video frame)
Interleave, preload duration : 504 ms


5904833498f5d60a4b53166bf36b9447f0e0bce1Волшебное приключение / The Magic Roundabout (Дэйв Бортуик, мультфильм, анимация, приключения, 2005) [BDRip, Профессиональный (двухгоголосый, закадровый)] Волшебное приключение / The Magic Roundabout (Дэйв Бортуик, мультфильм, анимация, приключения, 2005) [BDRip, Профессиональный (двухгоголосый, закадровый)] " />

Аплоадер: Админ, дата: 28-01-2012, 21:07, торрент скачан: 359 раз

Понравилась раздача? Посмотрите эти:
  • Посылка / The Package (Джесси Джонсон, боевик, 2013) [HDRip, Профессиональн ...
  • 42 / 42 (Брайан Хелгеленд, драма, биография, спорт, 2013) [BDRip, Профессио ...
  • Кошачья жизнь / Une Vie de Chat (Жан-Луп Фелисиоли, Ален Ганьоль, Мультфиль ...
  • Игра смерти / Game of death (Роберт Клауз, Саммо Хунг Кам-Бо, Брюс Ли, боев ...
  • Магазин самоубийств / Le magasin des suicides (Патрис Леконт, Мультфильм, м ...
  • Скуби-Ду! Маска Синего Сокола / Scooby-Doo! Mask Of The Blue Falcon (Оливье ...
  • Лучший стрелок / Top Gun (Тони Скотт, боевик, драма, мелодрама, 1986) [BDRi ...
  • Псы войны / The Dogs of War (Джон Ирвин, боевик, драма, приключения, военны ...
  • Эрик Викинг / Erik the Viking (Терри Джонс, фэнтези, комедия, приключения, ...
  • Захват / Carjacked (Джон Бонито, триллер, 2011)[BDRip, Профессиональный (мн ...
  • Индиана Джонс: В поисках утраченного ковчега / Indiana Jones and the Raider ...
  • Привет, Скуби-Ду!/Aloha, Scooby-Doo! (Тим Молтби, 2005) [Мультфильм/приключ ...
  • Волшебное приключение / The Magic Roundabout (Дэйв Бортуик, мультфильм, фэн ...
  • Вскрытие инопланетянина/Alien Autopsy (Джонни Кэмпбелл, Комедия, фантастика ...
  • Скуби-Ду: Нападение Пантазаура / Scooby-Doo! Legend of the Phantosaur (Дугл ...
  • Цвет волшебства / The Colour of Magic /(Вадим Жан, Фэнтези, комедия, приклю ...
  • Халк против Тора / Hulk Vs. Thor (Сэм Лью, Фрэнк Пор, мультфильм, боевик, п ...
  • Будь круче! / Be Cool (Ф. Гэри Грей, комедия, криминал, 2005) [BDRip, Дубли ...
  • Планета сокровищ / Treasure Planet (Рон Клементс, Джон Маскер, Мультфильм, ...
  • Нянь [Расширенная версия] / The Sitter [Unrated] (Дэвид Гордон Грин, Комеди ...
  • Мгновение любви / Here (Браден Кинг, Драма, мелодрама, приключения, 2011) [ ...
  • Присутствие великолепия / Magnifica presenza (Ферзан Озпетек, драма, 2012) ...
  • Глушь / Resurrection County (Matt Zettell, ужасы, триллер, 2008) [DVDRip, П ...
  • Ничего, кроме правды / Nothing But the Truth (Род Лури, триллер, драма, 200 ...
  • Робинзон Крузо / Robinson Crusoe (Род Харди, Джордж Миллер, драма, приключе ...
  • Информация
    Посетители, находящиеся в группе Гости, не могут оставлять комментарии к данной публикации.