вход на сайт

Имя пользователя :
Пароль :

Восстановление пароля Регистрация
Сверхновый Супермен / All-Star Superman (Сэм Лью, мультфильм, фантастика, боевик, 2011) [HDRip-AVC, Любительский (двухголосый)]
Рейтинг:
(голосов: 1)



[img]{THEME}/images/logopost.png[/img]



Сверхновый Супермен / All-Star Superman

Год выпуска: 2011
Страна: США
Производство: DC Entertainment, Warner Bros. Animation, Warner Premiere
Жанр: мультфильм, фантастика, боевик

Режиссёр: Сэм Лью
В ролях: Кристина Хендрикс, Мэттью Грей Габлер, Линда Карделлини, Энтони ЛаПалья, Джеймс Дентон, Эдвард Эснер, Алексис Денисоф, Арнольд Вослоу, Фрэнсис Конрой, Джон Ди Маджио

Перевод: Любительский (двухголосый) + Оригинал
Субтитры: Английские [полные, UTF-8]

Описание: Лекс Лютор приговорен к казни. Но злодей успел взломать генетический код Супермена и подвергнуть Человека из Стали смертельной дозой солнечной радиации. Супермен обречен. В оставшиеся дни он решает открыть Лоис Лейн свое истинное лицо и противостоять последним козням астрономического масштаба. Погибнет ли Супермен или возродится подобно сверхновой звезде?Дата премьеры (мир): 22 февраля 2011
Качество: HDRip-AVC (Исходник: BDRip 1080p)
Продолжительность: 01:16:36

Автор рипа: potroks

Формат: MKV
Видео кодек: x264
Аудио кодек: AC3
Видео: 1024x576 (16:9), 23,976 кадр/сек, 1780 Кбит/сек, 0.126 bit/pixel
Аудио1: 48 kHz, AC-3, 6 channels (Front: L C R, Side: L R, LFE), 448 kbps
Аудио2: 48 kHz, AC-3, 6 channels (Front: L C R, Side: L R, LFE), 448 kbps
MediaInfo ▼Video
ID : 1
Format : AVC
Format/Info : Advanced Video Codec
Format profile : [email protected]
Format settings, CABAC : Yes
Format settings, ReFrames : 5 frames
Codec ID : V_MPEG4/ISO/AVC
Duration : 1h 16mn
Bit rate : 1 780 Kbps
Width : 1 024 pixels
Height : 576 pixels
Display aspect ratio : 16:9
Frame rate : 23.976 fps
Color space : YUV
Chroma subsampling : 4:2:0
Bit depth : 8 bits
Scan type : Progressive
Bits/(Pixel*Frame) : 0.126
Stream size : 947 MiB (65%)
Writing library : x264 core 112 r1834 a51816a
Encoding settings : cabac=1 / ref=5 / deblock=1:-1:-1 / analyse=0x3:0x113 / me=umh / subme=8 / psy=1 / psy_rd=1.00:0.10 / mixed_ref=1 / me_range=16 / chroma_me=1 / trellis=1 / 8x8dct=1 / cqm=0 / deadzone=21,11 / fast_pskip=1 / chroma_qp_offset=-3 / threads=6 / sliced_threads=0 / nr=0 / decimate=1 / interlaced=0 / constrained_intra=0 / bframes=3 / b_pyramid=2 / b_adapt=2 / b_bias=0 / direct=3 / weightb=1 / open_gop=0 / weightp=2 / keyint=250 / keyint_min=23 / scenecut=40 / intra_refresh=0 / rc_lookahead=50 / rc=2pass / mbtree=1 / bitrate=1780 / ratetol=1.0 / qcomp=0.60 / qpmin=0 / qpmax=51 / qpstep=4 / cplxblur=20.0 / qblur=0.5 / ip_ratio=1.40 / aq=1:1.00

Audio #1
ID : 2
Format : AC-3
Format/Info : Audio Coding 3
Mode extension : CM (complete main)
Codec ID : A_AC3
Duration : 1h 16mn
Bit rate mode : Constant
Bit rate : 448 Kbps
Channel(s) : 6 channels
Channel positions : Front: L C R, Side: L R, LFE
Sampling rate : 48.0 KHz
Bit depth : 16 bits
Compression mode : Lossy
Stream size : 245 MiB (17%)
Title : L2 AC3 / 5.1 / 448 kbps
Language : Russian

Audio #2
ID : 3
Format : AC-3
Format/Info : Audio Coding 3
Mode extension : CM (complete main)
Codec ID : A_AC3
Duration : 1h 16mn
Bit rate mode : Constant
Bit rate : 448 Kbps
Channel(s) : 6 channels
Channel positions : Front: L C R, Side: L R, LFE
Sampling rate : 48.0 KHz
Bit depth : 16 bits
Compression mode : Lossy
Stream size : 245 MiB (17%)
Title : Оригинал AC3 / 5.1 / 448 kbps
Language : English

Text
ID : 4
Format : UTF-8
Codec ID : S_TEXT/UTF8
Codec ID/Info : UTF-8 Plain Text
Language : English





3e9a874d6edaaf0e0794a120ed219c3c2c770f2fСверхновый Супермен / All-Star Superman (Сэм Лью, мультфильм, фантастика, боевик, 2011) [HDRip-AVC, Любительский (двухголосый)] Сверхновый Супермен / All-Star Superman (Сэм Лью, мультфильм, фантастика, боевик, 2011) [HDRip-AVC, Любительский (двухголосый)] " />

Аплоадер: Админ, дата: 13-01-2012, 14:41, торрент скачан: 359 раз

Понравилась раздача? Посмотрите эти:
  • Пастырь / Priest (Скотт Чарльз Стюарт, ужасы, фантастика, боевик, триллер, ...
  • Хроника / Chronicle (Джошуа Транк, фантастика, боевик, триллер, драма, 2012 ...
  • Супермен: Непобежденный / Superman: Unbound (Джеймс Такер, мультфильм, боев ...
  • Честь дракона / Tom yum goong (Прачья Пинкаю, боевик, триллер, драма, крим ...
  • Напряги Извилины / Get Smart (Питер Сигал, Комедия, боевик, приключения ...
  • Убить по расписанию / Ticking Clock (Эрни Барбараш, фантастика, боевик, три ...
  • Персонаж / Stranger Than Fiction (Марк Форстер, Комедия, драма, фантастика, ...
  • Репортаж из преисподней / [REC] 2 (Жауме Балагуэро, Пако Пласа, ужасы, трил ...
  • Идеальный Голос / Pitch Perfect (Джейсон Мур, Комедия, музыка, 2012) [BDRip ...
  • Сверхновый Супермен / All-Star Superman (Сэм Лью, мультфильм, фантастика, б ...
  • Гриффины: Это ловушка! / Family Guy Presents: Its a Trap! (Питер Шин / муль ...
  • Бомж с дробовиком / Hobo with a Shotgun (Джейсон Айзенер / Jason Eisener, С ...
  • Исходный код / Source Code (Дункан Джонс, фантастика, боевик, триллер, 2011 ...
  • Чаббчаббы спасают Рождество / The Chubbchubbs Save Xmas (Коуди Камерон, мул ...
  • Ворон / The Raven (Джеймс МакТиг, Триллер, детектив, 2012) [BDRip 720p, Дуб ...
  • Mylene Farmer / Du Temps [2011, Pop, HDTVRip]
  • Mylene Farmer / Bleu Noir [2011, Pop, HDTVRip]
  • [PSP VIDEO] Супермен Бэтмэн Апокалипсис / Superman./Batman. Apocalypse (мул ...
  • Нет мужчин - нет проблем / Without Men (Габриела Тальявини / Gabriela Tagli ...
  • Хостел 3 / Hostel: Part III (Скотт Спигел / Scott Spiegel, ужасы, триллер, ...
  • Информация
    Посетители, находящиеся в группе Гости, не могут оставлять комментарии к данной публикации.