вход на сайт

Имя пользователя :
Пароль :

Восстановление пароля Регистрация
Скуби-Ду: Нападение Пантазаура / Scooby-Doo! Legend of the Phantosaur (Дуглас Лангдэйл, мультфильм, 2011) [DVDRip, Любительский (Одноголосый, Закадровый)]
Рейтинг:
(голосов: 1)



[img]{THEME}/images/logopost.png[/img]



Скуби-Ду: Нападение Пантазаура/ Scooby-Doo! Legend of the Phantosaur

Год выпуска: 2011
Страна: США, Сингапур
Производство: Warner Bros
Жанр: мультфильм

Режиссёр: Дуглас Лангдэйл
В ролях: Лоретта Дивайн, Фрэнк Уэлкер, Мэттью Лиллард, Фред Татаскьор, Сумали Монтано, Лора Бэйли, Марк Хэмилл, Коллин О’Шонесси, Кевин Майкл Ричардсон

Перевод: Любительский (Одноголосый, Закадровый)
Субтитры: Нет

О фильме: В панику превращается спокойный курортный отдых, когда Скуби-Ду и его товарищи обнаруживают ужасного доисторического Пантазаура. Чтобы защитить сокровища, похороненные в тайных пещерах пустыни, древняя легенда оживает.Качество: DVDRip
Продолжительность: 01:15:14 час.

Формат: AVI
Видео кодек: XviD
Аудио кодек: MP3, AC3
Видео: 2008 kb/s, 720x400, 23.976 fps, XviD 1.2.1 (UTC 2008-12-04), 0.291 bit/pixel
Аудио:
Russian: MP3, 192 kb/s (2 ch), 44.1 KHz, 42 ms (1.00 video frame)
English: Audio Coding 3, 384 kb/s (6 ch), 48.0 KHz, 16 bits, 42 ms (1.00 video frame)

"Mediainfo" ▼
General
Format : AVI
Format/Info : Audio Video Interleave
File size : 1.37 GiB
Duration : 1h 15mn
Overall bit rate : 2 598 Kbps
Writing application : VirtualDubMod 1.5.10.1 Рус от Stvens Inc.™ www.stvens.amillo.net (build 2439/release)
Video #0
ID : 0
Format : MPEG-4 Visual
Format profile : Advanced [email protected]
Format settings, BVOP : 1
Format settings, QPel : Yes
Format settings, GMC : No warppoints
Format settings, Matrix : Default (H.263)
Muxing mode : Packed bitstream
Codec ID : XVID
Codec ID/Hint : XviD
Duration : 1h 15mn
Bit rate : 2 008 Kbps
Width : 720 pixels
Height : 400 pixels
Display aspect ratio : 16:9
Frame rate : 23.976 fps
Color space : YUV
Chroma subsampling : 4:2:0
Bit depth : 8 bits
Scan type : Progressive
Compression mode : Lossy
Bits/(Pixel*Frame) : 0.291
Stream size : 1.06 GiB (77%)
Writing library : XviD 1.2.1 (UTC 2008-12-04)
Audio #1
ID : 1
Format : MPEG Audio
Format version : Version 1
Format profile : Layer 3
Mode : Joint stereo
Codec ID : 55
Codec ID/Hint : MP3
Duration : 1h 15mn
Bit rate mode : Constant
Bit rate : 192 Kbps
Channel(s) : 2 channels
Sampling rate : 44.1 KHz
Compression mode : Lossy
Stream size : 103 MiB (7%)
Alignment : Split accross interleaves
Interleave, duration : 42 ms (1.00 video frame)
Interleave, preload duration : 500 ms
Audio #2
ID : 2
Format : AC-3
Format/Info : Audio Coding 3
Mode extension : CM (complete main)
Codec ID : 2000
Duration : 1h 15mn
Bit rate mode : Constant
Bit rate : 384 Kbps
Channel(s)
80606082a1cc2bcf292c3c7f4a2055b24f314054Скуби-Ду: Нападение Пантазаура / Scooby-Doo! Legend of the Phantosaur (Дуглас Лангдэйл, мультфильм, 2011) [DVDRip, Любительский (Одноголосый, Закадровый)] Скуби-Ду: Нападение Пантазаура / Scooby-Doo! Legend of the Phantosaur (Дуглас Лангдэйл, мультфильм, 2011) [DVDRip, Любительский (Одноголосый, Закадровый)] " />

Аплоадер: Админ, дата: 9-10-2011, 19:34, торрент скачан: 359 раз

Понравилась раздача? Посмотрите эти:
  • Вирус / Flu (Ким Сон Су, Драма, 2013) [HDTVRip, Любительский (двухголосый з ...
  • Скуби-Ду! Боязнь Сцены / Scooby-Doo! Stage Fright (Виктор Кук, мультфильм, ...
  • Мужество / Wymyk (Грег Зглински, драма, 2011) [DVDRip, Любительский (одного ...
  • Берлинское дело / The Berlin File (Рю Сын Ван, Боевик, триллер, драма, 2013 ...
  • 23:59 / 23:59 (Гилберт Чан, Ужасы, 2011) [HDRip, Любительский (одноголосый ...
  • Чемпионат Италии 2012-13 / 36-й тур / Рома — Кьево / НТВ+ [07.05.2013, SD, ...
  • Скуби-Ду! Маска Синего Сокола / Scooby-Doo! Mask Of The Blue Falcon (Оливье ...
  • Псы войны / The Dogs of War (Джон Ирвин, боевик, драма, приключения, военны ...
  • Новые парни турбо / New Kids Turbo (Штефен Хаарс, Боевик, комедия, 2010) [H ...
  • Тюремщик / Screwed (Рег Тревисс / Reg Traviss, Драма, 2011) [DVDRip , Люби ...
  • Плохая актриса / Bad Actress (Роберт Ли Кинг, комедия, 2011) [DVDRip, Профе ...
  • Захват / Carjacked (Джон Бонито, триллер, 2011)[BDRip, Профессиональный (мн ...
  • Захватывающие рассказы Шрэкa / Shreks Thrilling Tales (Майк Митчел, Мультфи ...
  • Скуби-Ду: Нападение Пантазаура / Scooby-Doo: Legend of the Phantosaur (Дугл ...
  • Чемпионат Испании 2011-12 / 36-й тур / Реал Мадрид - Севилья / НТВ+ [Футбол ...
  • Чемпионат Европы 2012 / Группа C / 1-й тур / Ирландия — Хорватия / ТРК Футб ...
  • Олимпиада 2012 / Мужчины / Группа D / 1-й тур / Испания — Япония / НТВ+ [Фу ...
  • Олимпиада 2012 / Футбол / Мужчины / Группа A / 3-й тур / Великобритания - У ...
  • Привет, Скуби-Ду!/Aloha, Scooby-Doo! (Тим Молтби, 2005) [Мультфильм/приключ ...
  • Дневники разработчиков Nissan GT-R / The GT-R Legend (Хакидо Санир, Докумен ...
  • Скуби-Ду: Нападение Пантазаура / Scooby-Doo! Legend of the Phantosaur (Дугл ...
  • Чемпионат Англии 2011-2012 / Championship / 45-й Тур / Обзор Матчей / НТВ+ ...
  • Супершторм в Сиэтле / Seattle Superstorm (Джейсон Бурк, фантастика, боевик ...
  • Олимпиада 2012 / Женщины, Мужчины / Плавание / Квалификация / НТВ+ [30.07.2 ...
  • Обрезание / Excision (Ричард Бейтс мл., ужасы, драма, комедия,2012) [HDRip, ...
  • Информация
    Посетители, находящиеся в группе Гости, не могут оставлять комментарии к данной публикации.