вход на сайт

Имя пользователя :
Пароль :

Восстановление пароля Регистрация
Союз зверей / Die Konferenz der Tiere (Райнхард Клоосс, Хольгер Таппе, Мультфильм, Комедия, Приключения, Семейный, 2010) [HDRip, Дублированный]
Рейтинг:
(голосов: 1)



[img]{THEME}/images/logopost.png[/img]



Союз зверей / Die Konferenz der Tiere

Год выпуска: 2010
Страна: Германия
Выпущено: Ambient Entertainment GmbH, Constantin Film Produktion GmbH, White Horse Pictures
Жанр: мультфильм, комедия, приключения, семейный

Режиссёр: Райнхард Клоосс / Reinhard Klooss, Хольгер Таппе / Holger Tappe
Роли озвучивали: Вадим Галыгин, Илья Любимов, Тимур Родригез, Иван Жарков, Любовь Германова, Вероника Саркисова, Пётр Иващенко, Дмитрий Курта

Перевод: Профессиональный (Полное дублирование)

О фильме: Команда веселых зверей нашла зеленый оазис посреди засушливой африканской пустыни, чтобы там поселиться. Но их жизнь оказалась под угрозой — река Окаванго стала быстро пересыхать. Друзья выясняют, что в этом виноваты люди, которые построили дамбу. Звери, — такие разные, — от льва до трусливого суслика, — объединяются в союз, чтобы бросить вызов людям и спасти долину! Смешная ватага разношерстных, винторогих и парнокопытных устроит развеселую жизнь людям и наведет свой «порядок» на дамбе!




Качество: HDRip [Исходник BDRip 720p]
Продолжительность: 01:33:05
Формат: AVI
Видео кодек: XviD
Аудио кодек: MP3
Видео: 672x288 (2.33:1), 23.976 fps, XviD build 50 ~984 kbps avg, 0.21 bit/pixel
Аудио: 48 kHz, MPEG Layer 3, 2 ch, ~128.00 kbps avg
Media Info ▼TextGeneral
Complete name : Soyuz.Zverey.avi
Format : AVI
Format/Info : Audio Video Interleave
File size : 747 MiB
Duration : 1h 33mn
Overall bit rate : 1 122 Kbps
Writing application : VirtualDubMod 1.5.10.3 | (build 2550/release)
Writing library : VirtualDubMod build 2550/release

Video
ID : 0
Format : MPEG-4 Visual
Format profile : Advanced [email protected]
Format settings, BVOP : Yes
Format settings, QPel : No
Format settings, GMC : No warppoints
Format settings, Matrix : Custom
Codec ID : XVID
Codec ID/Hint : XviD
Duration : 1h 33mn
Bit rate : 985 Kbps
Width : 672 pixels
Height : 288 pixels
Display aspect ratio : 2.35:1
Frame rate : 23.976 fps
Color space : YUV
Chroma subsampling : 4:2:0
Bit depth : 8 bits
Scan type : Progressive
Compression mode : Lossy
Bits/(Pixel*Frame) : 0.212
Stream size : 656 MiB (88%)
Writing library : XviD 1.2.1 (UTC 2008-12-04)

Audio
ID : 1
Format : MPEG Audio
Format version : Version 1
Format profile : Layer 3
Codec ID : 55
Codec ID/Hint : MP3
Duration : 1h 33mn
Bit rate mode : Constant
Bit rate : 128 Kbps
Channel(s) : 2 channels
Sampling rate : 48.0 KHz
Compression mode : Lossy
Stream size : 85.2 MiB (11%)
Alignment : Aligned on interleaves
Interleave, duration : 42 ms (1.00 video frame)
Interleave, preload duration : 504 ms
Writing library : LAME3.98r
Encoding settings : -m s -V 4 -q 2 -lowpass 17 -b 128

Наши рипы / Набор в РГ / Стол заказов РГ / Новости РГ


a5742623a368b6ee5472f516cd25be88c5c59cb0Союз зверей / Die Konferenz der Tiere (Райнхард Клоосс, Хольгер Таппе, Мультфильм, Комедия, Приключения, Семейный, 2010) [HDRip, Дублированный] Союз зверей / Die Konferenz der Tiere (Райнхард Клоосс, Хольгер Таппе, Мультфильм, Комедия, Приключения, Семейный, 2010) [HDRip, Дублированный] " />

Аплоадер: Админ, дата: 6-02-2011, 03:04, торрент скачан: 359 раз

Понравилась раздача? Посмотрите эти:
  • Невероятные приключения кота / Oggy et les cafards (Оливер Жан-Мари, мультф ...
  • Погнали! / Getaway (Кортни Соломон, Боевик,Криминал, 2013) [HDRip, Професси ...
  • Блэки летит на Луну / Black to the Moon (Франсис Нилсен, мультфильм, комеди ...
  • Мэрайа Мунди и шкатулка Мидаса / The Adventurer: The Curse of the Midas Box ...
  • Турбо / Turbo (Дэвид Сорен, Мультфильм, комедия, приключения, семейный, спо ...
  • Аэротачки / Sky Force 3D (Тони Тэнг, мультфильм, 2012) [HDRip, Дублированны ...
  • Родительский беспредел / Parental Guidance (Энди Фикмен, комедия, семейный, ...
  • Диномама 3D / Dino Time (Юн-сок Чхве, Джон Кафка, Мультфильм, комедия, прик ...
  • Магазин самоубийств / Le magasin des suicides (Патрис Леконт, Мультфильм, м ...
  • Скуби-Ду! Маска Синего Сокола / Scooby-Doo! Mask Of The Blue Falcon (Оливье ...
  • Импи - суперстар! / Urmel voll in Fahrt (Райнхард Клоосс, Хольгер Таппе, ко ...
  • Новые парни турбо / New Kids Turbo (Штефен Хаарс, Боевик, комедия, 2010) [H ...
  • [Тизер] Тарзан / Tarzan (Райнхард Клоосс, мультфильм, семейный) [HDRip, Дуб ...
  • Союз зверей / Die Konferenz der Tiere (Райнхард Клоосс, Хольгер Таппе, муль ...
  • Шевели ластами 2 / Sammys avonturen 2 (Бен Стассен, мультфильм, приключения ...
  • [3D] Союз зверей / Konferenz der Tiere / Animals United (Райнхард Клоосс, Х ...
  • [3D] Тарзан 3D трейлер / Tarzan 3D trailer (Райнхард Клоосс / Reinhard Kloo ...
  • Союз зверей / Die Konferenz der Tiere (Райнхард Клоосс, Хольгер Таппе , мул ...
  • Чемпионат Европы 2012 / Группа D / 1-й тур / Украина - Швеция / Спорт 1 [11 ...
  • Мулан 2 / Mulan II (Даррел Руни, Линн Сауферлэнд, мультфильм, мюзикл, боеви ...
  • Медведь Йоги / Yogi Bear (Эрик Бревиг, мультфильм, комедия, приключения, се ...
  • Союз зверей / Animals United / Konferenz der Tiere (Райнхард Клоосс, Хольге ...
  • Романтики / The Romantics (Галт Нидерхоффер, Драма, мелодрама, комедия, 201 ...
  • Чемпионат Европы 2012 / Группа B / 1-й тур / Германия - Португалия / Спорт ...
  • Искажение / Skew (Сейв Челенз, ужасы, триллер, 2011) [HDRip, Профессиональн ...
  • Информация
    Посетители, находящиеся в группе Гости, не могут оставлять комментарии к данной публикации.