вход на сайт

Имя пользователя :
Пароль :

Восстановление пароля Регистрация
Ультрамарины/ Ultramarines: A Warhammer 40,000 Movie (Мартин Пик, мультфильм, фантастика, 2010) [DVDRip, Дубляж]
Рейтинг:
(голосов: 1)



[img]{THEME}/images/logopost.png[/img]



Ультрамарины/ Ultramarines: A Warhammer 40,000 Movie

Год выпуска: 2010
Страна: Великобритания, Канада
Производство: Codex Pictures, Good Story Productions, POP6
Жанр: Мультфильм, фантастика

Режиссёр: Мартин Пик
В ролях: Теренс Стамп, Син Пертви, Джон Харт, Дональд Самптер

Перевод: Дублированный [Лицензия]
Субтитры:Отсутствуют

Описание: Это 41-ое тысячелетие, дикое и мрачное темное будущее, время, в котором Человечество борется за выживание в галактике, расколотой кровопролитием и разрушением. Человечество находится на грани исчезновения, окружаемое со всех сторон ненавистными врагами — чужими, мутантами и предателями. И только колоссальное число Имперских Гвардейцев и несгибаемая сила Космических Десантников, генетически усовершенствованных элитных воинов, способно дать отпор пришельцам. Из всех древних и почетных орденов Космического Десанта, Ультрамарины — возможно, самый могущественный, уважаемый и бесстрашный. Чистые в помыслах и верности Императору, Ультрамарины считаются наиболее мобильными, строгими, дисциплинированными и бесстрашными воинами. Капитан Северус, почитаемый ветеран-воин с внушительной репутацией, получил безотлагательную просьбу о помощи с далекой планеты Митрон. Ничем не примечательная, Митрон имеет только одну стратегически важную ценность — святыню, защищавшуюся множество раз бесчисленными поколениями Космических Десантников из ордена Имперских Кулаков. Какая напасть могла заставить их просить помощи?

IMDB: рейтинг- 6.7/10 (337 votes)
КиноПоиск: рейтинг- 6.442 (223 голоса)

Сэмпл

Качество: DVDRip
Продолжительность: 01:16:28

Формат:AVI
Видео кодек: xvid
Аудио кодек: MP3
Видео: 25.000 fps, 640х352, (16:9), 1 137 Kbps, 0.202 Bits/Pixel
Аудио: 48.0 KHz, 2 channels, 128 Kbps

Mediainfo: ▼
Format : Avi
Codec ID : xvid
Duration : 1h 16mn
Bit rate : 1 137 Kbps
Width : 640 pixels
Height : 352 pixels
Display aspect ratio : 16:9
Frame rate : 25.000 fps
Resolution : 24 bits
Bits/(Pixel*Frame) : 0.202
Stream size : 622 MiB (89%)

ID : 1
Format : MPEG Audio
Format version : Version 1
Format profile : Layer 3
Codec ID : 55
Codec ID/Hint : MP3
Duration : 1h 16mn
Bit rate mode : Constant
Bit rate : 128 Kbps
Channel(s) : 2 channels
Sampling rate : 48.0 KHz
Resolution : 16 bits
Stream size : 70.0 MiB (10%)
Alignment : Aligned on interleaves
Interleave, duration : 40 ms (1.00 video frame)
Interleave, preload duration : 504 ms
Writing library : LAME3.98r
Encoding settings : -m s -V 4 -q 2 -lowpass 17 -b 128

Дата премьеры (мир): 29 ноября 2010


578d843ed8152307c6dbbcd752405826b5a202daУльтрамарины/ Ultramarines: A Warhammer 40,000 Movie (Мартин Пик, мультфильм, фантастика, 2010) [DVDRip, Дубляж] Ультрамарины/ Ultramarines: A Warhammer 40,000 Movie (Мартин Пик, мультфильм, фантастика, 2010) [DVDRip, Дубляж] " />

Аплоадер: Админ, дата: 8-01-2011, 16:29, торрент скачан: 359 раз

Понравилась раздача? Посмотрите эти:
  • Аэротачки / Sky Force 3D (Тони Тэнг, мультфильм, 2012) [HDRip, Дублированны ...
  • Воображариум / Imaginaerum (Стобе Харью, Фэнтези, приключения, мюзикл, драм ...
  • Скуби-Ду! Маска Синего Сокола / Scooby-Doo! Mask Of The Blue Falcon (Оливье ...
  • [EN] Команда: На пути Аллаха / Takiye: Allah yolunda (2010, Бен Вербонг, тр ...
  • Космические Мутанты / Mutant Aliens (Билл Плимптон, мультфильм, фантастика, ...
  • Воин / The One Warrior (Том Стаут, фантастика, 2011) [DVDRip,Оригинал,Профе ...
  • Без всего / Sin ella (Джордже Колон, Мелодрама, 2010) [HDTVRip , Профессион ...
  • Ультрамарины / Ultramarines: A Warhammer 40,000 Movie (Мартин Пик, мультфил ...
  • Легенда о рыцаре / El Cid: La leyenda (Хосе Позо, мультфильм, приключения, ...
  • Франкенвини / Frankenweenie (Тим Бёртон, Мультфильм, ужасы, фантастика, ком ...
  • Франкенвини / Frankenweenie (Тим Бёртон, мультфильм, ужасы, фантастика, ком ...
  • Мулан 2 / Mulan II (Даррел Руни, Линн Сауферлэнд, мультфильм, мюзикл, боеви ...
  • Буря в Арктике / Arctic Blast (Брайан Тренчард-Смит, фантастика, триллер, 2 ...
  • Поле битвы - Земля. Сага 3000-го года / Battlefield Earth: A Saga of the Ye ...
  • Ультрамарины / Ultramarines: A Warhammer 40,000 Movie (Мартин Пик , Мультф ...
  • Ученик Санты / Santas Apprentice(Люк Винчикуерра/мультфильм/2010) [DVDRip,Д ...
  • Ультрамарины / Ultramarines: A Warhammer 40,000 Movie (Мартин Пик, мультфил ...
  • Ультрамарины / Ultramarines: A Warhammer 40,000 Movie (Мартин Пик, мультфил ...
  • Вскрытие инопланетянина/Alien Autopsy (Джонни Кэмпбелл, Комедия, фантастика ...
  • Повторяющие / Repeaters (режиссёр, фантастика, триллер, драма, 2010) [DVDRi ...
  • Неприкасаемые / Intouchables (Оливье Накаш, Эрик Толедано, Драма, 2011) [BD ...
  • Хитрая ворона (Галина Баринова, короткометражный мультфильм, 1980) [DVDRip, ...
  • Планета сокровищ / Treasure Planet (Рон Клементс, Джон Маскер, Мультфильм, ...
  • Кто хочет стать Пиратом? / The Pirates! So You Want To Be A Pirate! (Питер ...
  • Камень судьбы / Stone of destiny (Чарльз Мартин Смит, драма, комедия, крими ...
  • Информация
    Посетители, находящиеся в группе Гости, не могут оставлять комментарии к данной публикации.