вход на сайт

Имя пользователя :
Пароль :

Восстановление пароля Регистрация
Ученик Санты / Santas Apprentice(Люк Винчикуерра/мультфильм/2010) [DVDRip,Дублированное [Лицензия]]
Рейтинг:
(голосов: 1)



[img]{THEME}/images/logopost.png[/img]



Ученик Санты / Santas Apprentice


Год выпуска: 2010
Страна: Франция / Австралия
Производство: Avrill Stark Entertainment / Gaumont-Alphanim
Жанр: мультфильм

Режиссёр:Люк Винчикуерра
В ролях: Макс Каллен, Холли Фрайзер, Сэм Фрайзер, Дельта Гудрем, Шэйн Джейкобсон, Джорджи Паркер, Хью Шеридан, Магда Шубански, Джек Версаче


Перевод: Дублированное [Лицензия]
Субтитры: нет

Описание: Старый добрый Санта не хочет уходить на пенсию, но правила есть правила — он должен кого-то обучить себе на замену. Счастливчика, которого выберут из числа миллионов детей, должны звать Николасом, он должен быть сиротой и, конечно, обладать чистым сердцем. И такой ребенок есть!
На другом конце света живет маленький мальчик, который идеально подходит для этой ответственной миссии, но неуверенность в себе и, главное, страх высоты делают его никудышным претендентом. Согласится ли Санта помочь своему ученику справиться со страхами и достойно занять его место?

IMDB: рейтинг IMDB: 6.70 (7)
КиноПоиск: рейтинг 8.81316



Качество: DVDRip
Продолжительность: 01:17:08

Формат: AVI (XviD)
Видео кодек: XviD MPEG-4
Аудио кодек: AC3 Dolby Digital
Видео: 624x352 (1.77:1), 25 fps, XviD MPEG-4 ~1067 kbps avg, 0.19 bit/pixel
Аудио: 48 kHz, AC3 Dolby Digital, 2/0 (L,R) ch, ~192.00 kbps avg



Media Info:

Format : AVI
Format/Info : Audio Video Interleave
File size : 700 MiB
Duration : 1h 17mn
Overall bit rate : 1 270 Kbps
Writing application : VirtualDubMod 1.5.4.1 (build 2178/release)
Writing library : VirtualDubMod build 2178/release
Video
Format : MPEG-4 Visual
Format profile : Streaming [email protected]
Format settings, BVOP : Yes
Format settings, QPel : No
Format settings, GMC : No warppoints
Format settings, Matrix : Custom
Codec ID : XVID
Codec ID/Hint : XviD
Duration : 1h 17mn
Bit rate : 1 068 Kbps
Width : 624 pixels
Height : 352 pixels
Display aspect ratio : 16/9
Frame rate : 25.000 fps
Resolution : 24 bits
Colorimetry : 4:2:0
Scan type : Progressive
Bits/(Pixel*Frame) : 0.195
Stream size : 589 MiB (84%)
Writing library : XviD 58
Audio
Format : AC-3
Format/Info : Audio Coding 3
Codec ID : 2000
Duration : 1h 17mn
Bit rate mode : Constant
Bit rate : 192 Kbps
Channel(s) : 2 channels
Channel positions : L R
Sampling rate : 48.0 KHz
Stream size : 106 MiB (15%)
Alignment : Split accross interleaves
Interleave, duration : 40 ms (1.00 video frame)
Interleave, preload duration : 500 ms


7edaaa0a368bbebb7552918263a327b8400479b5Ученик Санты / Santas Apprentice(Люк Винчикуерра/мультфильм/2010) [DVDRip,Дублированное [Лицензия]] Ученик Санты / Santas Apprentice(Люк Винчикуерра/мультфильм/2010) [DVDRip,Дублированное [Лицензия]] " />

Аплоадер: Админ, дата: 25-12-2010, 16:29, торрент скачан: 359 раз

Понравилась раздача? Посмотрите эти:
  • Ученик Санты / Santas Apprentice (Люк Винчигуэрра, Мультфильм, комедия, 201 ...
  • Ученик Санты / Santas Apprentice (Люк Винчигуэрра, Мультфильм, комедия, 201 ...
  • Вирус / Flu (Ким Сон Су, Драма, 2013) [HDTVRip, Любительский (двухголосый з ...
  • Мужество / Wymyk (Грег Зглински, драма, 2011) [DVDRip, Любительский (одного ...
  • [EN] Команда: На пути Аллаха / Takiye: Allah yolunda (2010, Бен Вербонг, тр ...
  • Космические Мутанты / Mutant Aliens (Билл Плимптон, мультфильм, фантастика, ...
  • Тюремщик / Screwed (Рег Тревисс / Reg Traviss, Драма, 2011) [DVDRip , Люби ...
  • Плохая актриса / Bad Actress (Роберт Ли Кинг, комедия, 2011) [DVDRip, Профе ...
  • Захват / Carjacked (Джон Бонито, триллер, 2011)[BDRip, Профессиональный (мн ...
  • Ученик Санты / Santas Apprentice (Люк Винчикуерра, мультфильм, 2010) [HDRip ...
  • Ученик Санты / Santas Apprentice (Люк Винчикуерра, мультфильм, 2010) [HDRip ...
  • Захватывающие рассказы Шрэкa / Shreks Thrilling Tales (Майк Митчел, Мультфи ...
  • Три богатыря на дальних берегах (Константин Феоктистов, мультфильм, комедия ...
  • Привет, Скуби-Ду!/Aloha, Scooby-Doo! (Тим Молтби, 2005) [Мультфильм/приключ ...
  • День и Ночь / Day & Night (Тедди Ньютон, Мультфильм, короткометражка, 2010) ...
  • Ученик Санты / Santas Apprentice (Люк Винчикуерра, мультфильм, 2010) [DVDRi ...
  • Мифы и легенды: Новый альянс / Mitos y Leyendas La Nueva Alianza (Josй Luis ...
  • Неделя в NBA с В.Гомельским / НТВ+ [28.06.2011, SD, XviD, RU, SAT]
  • Всё начинается с конца / Сa commence par la fin (Микаэль Коэн, мелодрама, 2 ...
  • Магический кристалл 3D / Maaginen kristalli (Антти Хаикала, мультфильм, фэн ...
  • Секретная служба Санты: Подарок на Рождество / Prep & Landing Stocking Stuf ...
  • Секретная служба Санты: Шалуны против Паинек / Prep & Landing: Naughty vs. ...
  • Хитрая ворона (Галина Баринова, короткометражный мультфильм, 1980) [DVDRip, ...
  • Все матчи Dream Team на Олимпийских играх в Барселоне [1992 г., Баскетбол, ...
  • Инкубус / Inkubus (Гленн Чиано, Ужасы, 2011) [DVDRip, Профессиональный (мно ...
  • Информация
    Посетители, находящиеся в группе Гости, не могут оставлять комментарии к данной публикации.