вход на сайт

Имя пользователя :
Пароль :

Восстановление пароля Регистрация
[Видеоуроки] Digitaltutors / Создание мультяшного персонажа в Maya [mov, HD, 788 х 648]
Рейтинг:
(голосов: 1)



[img]{THEME}/images/logopost.png[/img]



Создание мультяшного персонажа в Maya

Страна:США
Сайт производителя:www.digitaltutors.com
Автор:Justin Marshall
Год выпуска: 2008
Жанр: Обучающее видео, 3D графика.
Перевод: Отсутствует

Описание: Урок по обучению создания мультяшного персонажа в программе Maya. Включает в себя аспекты моделирования, текстурирования, шэйдинга. В состав курса входят все необходимые файлы по проекту.

Качество: HD
Продолжительность: 07:44:00

Формат: mov
Видео: 788 х 648 (4:3), 15000 fps, DivX Codec 5.2.1 build 1328 ~1392 kbps
Аудио: 22.05 kHz, MPEG audio, 1 ch, ~176.00 kbps

mediainfo ▼D:OSDigitalTutors.Creating Cartoon CharactersDT_MayaChartoonChar_CD1media1.mov
General
Complete name : D:OSDigitalTutors.Creating Cartoon CharactersDT_MayaChartoonChar_CD1media1.mov
Format : MPEG-4
Format profile : QuickTime
Codec ID : qt
File size : 18.5 MiB
Duration : 1mn 51s
Overall bit rate : 1 392 Kbps
Encoded date : UTC 2007-10-08 19:24:18
Tagged date : UTC 2007-10-08 19:24:19
Writing library : Apple QuickTime
Video #2
ID : 2
Format : Sorenson 3
Codec ID : SVQ3
Codec ID/Info : Sorenson Media Video 3 (Apple QuickTime 5)
Duration : 1mn 51s
Bit rate : 1 343 Kbps
Width : 788 pixels
Height : 648 pixels
Display aspect ratio : 1.216
Frame rate mode : Constant
Frame rate : 15.000 fps
Bits/(Pixel*Frame) : 0.175
Stream size : 17.9 MiB (96%)
Language : English
Encoded date : UTC 2007-10-08 19:21:55
Tagged date : UTC 2007-10-08 19:24:19
Audio #1
ID : 1
Format : MPEG Audio
Codec ID : 55
Codec ID/Hint : MP3
Duration : 1mn 51s
Source duration : 1mn 51s
Bit rate mode : Constant
Bit rate : 176 Kbps
Nominal bit rate : 48.0 Kbps
Channel(s) : 1 channel
Sampling rate : 22.05 KHz
Compression mode : Lossy
Stream size : 2.35 MiB (13%)
Source stream size : 2.35 MiB (13%)
Language : English
Encoded date : UTC 2007-10-08 19:21:55
Tagged date : UTC 2007-10-08 19:24:19


19386edfebe90b44784bc3dd712835daa9fd2090[Видеоуроки] Digitaltutors / Создание мультяшного персонажа в Maya [mov, HD, 788 х 648] [Видеоуроки] Digitaltutors / Создание мультяшного персонажа в Maya [mov, HD, 788 х 648] " />

Аплоадер: Админ, дата: 1-03-2013, 22:30, торрент скачан: 359 раз

Понравилась раздача? Посмотрите эти:
  • Iconic Images / Namibia [2012, Art, Travel, Nature, Master]
  • Samsung / Smart TV (Promo) [2013, Commercial, Master]
  • Ciara feat. Nicki Minaj / Im Out (Bet Version) [2013, Pop, Rap, Master]
  • Inna feat. Yandel / In Your Eyes [2013, Pop, Dance, Master]
  • Тимати feat. LOne и Сергей Мазаев / GQ [2013, Hip-Hop, Rap, Master]
  • Serebro / Мало тебя [2013, Dance, Pop, Master]
  • Инфинити / А он такой [2013, Pop, Master]
  • Инфинити / Нежно [2013, Pop, Master]
  • Quest Pistols / Забудем все [2013, Pop, HDRip]
  • Amel Bent / Delit [2011, R&B, Master]
  • Demi Lovato / Neon Lights [2013, Pop, Master]
  • Виа Гра / Перемирие [2013, Pop, HDRip]
  • Trey Songz feat. T.I. / 2 Reasons [2012, Hip-Hop, Master]
  • Victoria Justice / Freak The Freak Out [2011, Pop, Master]
  • Yahaira / Baile Del Amor [2012, Dance, Master]
  • Tinie Tempah feat. 2 Chainz / Trampoline [2013, Rap, Hip-Hop, Master]
  • 2 Chainz / Used 2 [2013, Hip-Hop, Rap, Master]
  • Madcon ft. Ameerah / Freaky Like Me [2011, Hip-Hop, Master]
  • Inna / JAdore [2012, Pop, Master]
  • [Видеоуроки] Digital Tutors / Creative Development: создание Live Action ...
  • [Видеоуроки] Digital Tutors / Creative Development: Моделирование детализи ...
  • Quincy Jones & Akon / Strawberry Letter 23 [2010, R&B, HDRip]
  • Coldplay / Christmas Lights [2010, Indie Rock,Britpop, HDRip]
  • Сборник упражнений на мускулы тела / Muscle exercises // 84 из 84 [HDTV, от ...
  • Linkin Park / Burn It Down [2012, Alternative, Master]
  • Информация
    Посетители, находящиеся в группе Гости, не могут оставлять комментарии к данной публикации.