вход на сайт

Имя пользователя :
Пароль :

Восстановление пароля Регистрация
[Видеоуроки] Videosmile / Супер After Effects [avi, PCRec, 1280x720]
Рейтинг:
(голосов: 1)



[img]{THEME}/images/logopost.png[/img]



Видеокурс-Супер After Effects. Полный комплект

Страна:Россия
Производство:Videosmile
Год выпуска: 2013
Жанр: Обучающее видео
Перевод: Не требуется

Описание:
Первый полноценный обучающий видеокурс по After Effects на русском языке.
Этот видеокурс создавался практиками и для практиков. Мы сами когда-то начинали с нуля и до сих пор помним то ощущение беспомощности, когда не знаешь, как создать какие-то элементарные вещи, а помощи искать негде. Наша цель — сэкономить ваше время и сделать так, чтобы вы изучили After Effects максимально быстро и смогли уже через месяц создавать такие видеоэффекты, от которых ваша публика будет в диком восторге! Не важно, являетесь ли вы видеографом, хотите стать профессиональным моушн-дизайнером или просто желаете научиться создавать классные видеоролики — этот курс мы разработали именно для вас!

"Содержание" ▼1. Курс «Супер After Effects» на 2-х DVD
2. Курс «Выражения в After Effects»
3. Курс «Mocha AE»
4. Бонусные видео:
- «Основы теории видео»
- «Выбор компьютера»
- «Основные принципы анимации»
- «Повышение производительности»
- «Шаблоны для цветокоррекции»
- «Как создать живые фотографии»
5. Все дополнительные материалы


"Дополнительная информация:" ▼Уроки сриплены в нормальное видео (огромное спасибо и:респект: Дизелю =)) . Все дополнительные материалы и бонусы присутствуют.

Качество:PCRec
Продолжительность: 124 урока ~ 30 минут
"Mediainfo" ▼General
Format : AVI
Format/Info : Audio Video Interleave
Overall bit rate : 481 Kbps
Writing application : Lavf54.59.106

Video
Format : MPEG-4 Visual
Codec ID : MP42
Codec ID/Info : Microsoft MPEG-4 v2 (pre-standard)
Codec ID/Hint : Microsoft
Bit rate : 276 Kbps
Width : 1 280 pixels
Height : 720 pixels
Display aspect ratio : 16:9
Frame rate : 30.000 fps
Compression mode : Lossy
Bits/(Pixel*Frame) : 0.010
Stream size : 9.69 MiB (57%)

Audio
Format : MPEG Audio
Format version : Version 1
Format profile : Layer 3
Mode : Joint stereo
Mode extension : MS Stereo
Codec ID/Hint : MP3
Bit rate mode : Constant
Bit rate : 192 Kbps
Channel(s) : 2 channels
Sampling rate : 44.1 KHz
Compression mode : Lossy
Stream size : 6.75 MiB (40%)
Alignment : Aligned on interleaves
Interleave, duration : 26 ms (0.78 video frame)
Writing library : LAME3.98.4


Формат: AVI
Видео: 1280x720, 30 fps, MP42 6000 ~ 6192 kbps
Аудио: 44 kHz, AAC, 2 ch, ~128.00 kbps


7949fd323fd9d0b20ebe52f8ba11b7feb9788e57[Видеоуроки] Videosmile / Супер After Effects [avi, PCRec, 1280x720] [Видеоуроки] Videosmile / Супер After Effects [avi, PCRec, 1280x720] " />

Аплоадер: Админ, дата: 2-09-2013, 19:15, торрент скачан: 359 раз

Понравилась раздача? Посмотрите эти:
  • [Видеоуроки] Video Tutorials/Конкурсные видео уроки по After effects от vid ...
  • [Видеоуроки] Digital Tutors / Compositing Decay into Architectural Footage ...
  • [Видеоуроки] VideoSmile.ru / Vegas Pro с нуля [MP4, HD, 1280x720]
  • [Видеоуроки] VideoSmile / Супер After Effects [AVI, MP4, PCRec, 1280x720]
  • [Видеоуроки] TutsPlus.com / Advanced Text Treatments in After Effects [mp4, ...
  • [Видеоуроки] TutsPlus.com / Mastering Colour Grading In After Effects [MOV, ...
  • [Видеоуроки] Videosmile.ru / After Effects - Быстрый старт [MP4, HD, 1280x7 ...
  • [Видеоуроки] Videosmile.ru / Cinema 4D - Для начинающих [MP4, HD, 1280x720] ...
  • [Видеоуроки] Digital Tutors / Destructive Shattering Effects in Cinema 4D ( ...
  • [Видеоуроки] Rich Aguilar / Space Scene in After Effects [MP4, HD, 1280x720 ...
  • [Видеоуроки] Digital Tutors / Creative Development: создание Live Action ...
  • [Видеоуроки] (2011) DVD Menu in After Effects «Меню DVD»[mov. 800x600]
  • [EN] Lynda.com After Effects CS5 Essential Training (Видеоуроки) [DVDRip, о ...
  • Видеосамоучитель "Видеоэффекты и анимация в Adobe After Effects CS3&qu ...
  • VideoCopilot - Basic Training RUS [Базовый тренинг] Видеоуроки базового кур ...
  • Видеоуроки по Adobe After Effects на русском языке от RealTime
  • [Видеоуроки] Интерактивный курс Adobe After Effects CS3 [ISO]
  • [EN] The Gnomon Workshop - After Effects Tutorials (Видеоуроки) [mov]
  • [Шаблоны] Готовые проекты для Adobe After Effects [AEP]
  • [Видеоуроки] Видео уроки по After Effects от Video Copilot (Andrew Kramer), ...
  • [Стили] Световые эффекты / Light Magic / Light Effects [PSD]
  • [Видеоуроки] (2011) Видеоурок по Adobe After Effects от Video Copilot, 116 ...
  • [Видеоуроки] Тренировочный лагерь. Основы работы в Adobe After Effects - Вс ...
  • [Видеоуроки] VideoCopilot. Основы работы в Adobe After Effects. Все выпуски ...
  • [Видеоуроки] [Nix Studio Edition] After Effects Video Tutorials [FLV, MP4, ...
  • Информация
    Посетители, находящиеся в группе Гости, не могут оставлять комментарии к данной публикации.