вход на сайт

Имя пользователя :
Пароль :

Восстановление пароля Регистрация
[Видеоуроки] Видео уроки по Sony Vegas (2010) [640x480]
Рейтинг:
(голосов: 1)



[img]{THEME}/images/logopost.png[/img]



Видео уроки по Sony Vegas

Страна: Россия
Производство:Nix Studio Edition
Год выпуска: 2010
Жанр: Обучающее видео.

Описание:
Обучающие видеоролики с подробным пошаговым выполнением работы в Sony Vegas.

Продолжительность: 00:09:00 ~ продолжительность одного урока


Формат: MPEG-PS
Видео: 640x480, 29.970 fps, MPEG Video, ~2 220 Kbps, 0.222 bit/pixel
Аудио: 44.1 KHz, MPEG Audio, 2 ch, ~128.00 kbps

"МедиаИнфо" ▼
D:ПРОГИТоррентSony Vegas UrokiИнтерфейс Sony Vegas, горячие клавиши и настройка.mpg
General
Complete name : D:ПРОГИТоррентSony Vegas UrokiИнтерфейс Sony Vegas, горячие клавиши и настройка.mpg
Format : MPEG-PS
File size : 157 MiB
Duration : 9mn 51s
Overall bit rate : 2 220 Kbps
Video #224
ID : 224 (0xE0)
Format : MPEG Video
Format version : Version 2
Format profile : [email protected]
Format settings, BVOP : No
Format settings, Matrix : Default
Format settings, GOP : M=1, N=12
Duration : 9mn 51s
Bit rate mode : Variable
Bit rate : 2 048 Kbps
Width : 640 pixels
Height : 480 pixels
Display aspect ratio : 4:3
Frame rate : 29.970 fps
Color space : YUV
Chroma subsampling : 4:2:0
Bit depth : 8 bits
Scan type : Progressive
Bits/(Pixel*Frame) : 0.222
Stream size : 144 MiB (92%)
Audio #192
ID : 192 (0xC0)
Format : MPEG Audio
Format version : Version 1
Format profile : Layer 2
Duration : 9mn 51s
Bit rate mode : Constant
Bit rate : 128 Kbps
Channel(s) : 2 channels
Sampling rate : 44.1 KHz
Stream size : 9.03 MiB (6%)





3475d1a0d1cf5d7d55fe4f4802c2ed390ed5b802[Видеоуроки] Видео уроки по Sony Vegas (2010) [640x480] [Видеоуроки] Видео уроки по Sony Vegas (2010) [640x480] " />

Аплоадер: Админ, дата: 8-08-2011, 14:57, торрент скачан: 359 раз

Понравилась раздача? Посмотрите эти:
Информация
Посетители, находящиеся в группе Гости, не могут оставлять комментарии к данной публикации.