вход на сайт

Имя пользователя :
Пароль :

Восстановление пароля Регистрация
Аватар: Легенда о Корре / The Legend of Korra // Сезон 2, эпизоды 1 по 3 (из 14) (фэнтези, боевик, приключения, семейный, 2013) [HDTVRip 720p, Любительский (одноголосый закадровый от RainDeath)]
Рейтинг:
(голосов: 1)



[img]{THEME}/images/logopost.png[/img]



Аватар: Легенда о Корре / The Legend of Korra
«Theres a new Avatar in town!»

Сезон 2, Эпизоды 1 по 3 (из 14)

Год выпуска: 2013
Страна: США
Производство: Nickelodeon Animation Studios
Жанр: мультфильм, фэнтези, боевик, приключения, семейный

Режиссёр: Хоаким Дос Сантос, Ки Хьюн Рю
Сценарий: Майкл Данте ДиМартино, Брайан Кониецко
Роли озвучивали: Джанет Вэрни (Korra), Ди Брэдли Бейкер (Naga), Дэвид Фаустино (Mako), П.Дж. Бирн (Bolin), Дж.К. Симмонс (Tenzin), Джефф Беннетт (Radio Broadcaster), Сейшелл Гэбриел (Asami Sato), Дарси Роуз Бернс (Ikki), Стивен Блум (Amon), Логан Уэллс (Meelo), Минди Стерлинг (Lin Beifong), Лэнс Хенриксен (Lieutenant) и т.д.

Перевод: Любительский (одноголосый закадровый от RainDeath)
Озвучка: RainDeath
Субтитры: Нет

Описание: Многие с нетерпением ждали второй сезон Легенд о Корре и спустя почти год томительной неизвестности, можно смело сказать что ожидания были не напрасны. Нас ждёт вторая книга под названием Духи, где Корре предстоит отправится в совершенно новый мир, столкнуться с невиданными врагами и обрести новые способности. В этом мире духов обитают невероятные существа, которые способные применять различные формы и управлять множеством стихий, что создаст не мало проблем нашим героям. В любом случае, нас ждёт захватывающее продолжение самого ожидаемого мультфильма - Легенда о Корре 2 сезон.
Список эпизодов ▼Эпизод 1. «Бунтарский дух» /«Rebel Spirit»
Эпизод 2. «Южное сияние» / «The Southern Lights»
Эпизод 3. «Гражданская война. Часть 1» / «Civil Wars, Part 1»



Качество: HDTVRip 720p
Продолжительность: по ~ 00:22:00

Формат: MKV
Видео кодек: H.264
Аудио кодек: MP3
Свойства видео: 1280x720 (16:9), 23.976 fps, 2315 kbps avg, ~0.105 bit/pixel
Свойства аудио: 48 kHz, 2 channels, MPEG Layer 3, ~128 kbps
MediaInfo: ▼General
Unique ID : 213076420288880386120953618776361681825 (0xA04D069CA53A73ADA94300C1144E43A1)
Complete name : Аватар Корра 2 книгаKorra 2; Spirits e01-02 RainDeath [720p].mkv
Format : Matroska
Format version : Version 2
File size : 811 MiB
Duration : 45mn 31s
Overall bit rate : 2 492 Kbps
Encoded date : UTC 2013-09-14 15:38:18
Writing application : mkvmerge v2.9.8 (Cest le bon) built on Aug 13 2009 12:49:06
Writing library : libebml v0.7.7 + libmatroska v0.8.1

Video
ID : 2
Format : AVC
Format/Info : Advanced Video Codec
Format profile : High@L4.1
Format settings, CABAC : Yes
Format settings, ReFrames : 5 frames
Codec ID : V_MPEG4/ISO/AVC
Duration : 45mn 31s
Bit rate : 2 315 Kbps
Width : 1 280 pixels
Height : 720 pixels
Display aspect ratio : 16:9
Frame rate mode : Constant
Frame rate : 23.976 fps
Color space : YUV
Chroma subsampling : 4:2:0
Bit depth : 8 bits
Scan type : Progressive
Bits/(Pixel*Frame) : 0.105
Stream size : 754 MiB (93%)
Writing library : x264 core 138 r2358 9e941d1
Encoding settings : cabac=1 / ref=5 / deblock=1:0:0 / analyse=0x3:0x113 / me=umh / subme=8 / psy=1 / psy_rd=1.00:0.00 / mixed_ref=1 / me_range=16 / chroma_me=1 / trellis=1 / 8x8dct=1 / cqm=0 / deadzone=21,11 / fast_pskip=1 / chroma_qp_offset=-2 / threads=6 / lookahead_threads=1 / sliced_threads=0 / nr=0 / decimate=1 / interlaced=0 / bluray_compat=0 / constrained_intra=0 / bframes=3 / b_pyramid=2 / b_adapt=2 / b_bias=0 / direct=3 / weightb=1 / open_gop=0 / weightp=2 / keyint=250 / keyint_min=25 / scenecut=40 / intra_refresh=0 / rc_lookahead=50 / rc=crf / mbtree=1 / crf=18.0 / qcomp=0.60 / qpmin=0 / qpmax=69 / qpstep=4 / ip_ratio=1.40 / aq=1:1.00
Language : English
Default : No
Forced : No
Matrix coefficients : BT.709

Audio
ID : 1
Format : MPEG Audio
Format version : Version 1
Format profile : Layer 3
Mode : Joint stereo
Mode extension : MS Stereo
Codec ID : A_MPEG/L3
Codec ID/Hint : MP3
Duration : 45mn 31s
Bit rate mode : Constant
Bit rate : 128 Kbps
Channel(s) : 2 channels
Sampling rate : 48.0 KHz
Compression mode : Lossy
Stream size : 41.7 MiB (5%)
Default : Yes
Forced : No
Внимание! Раздача ведётся путём до
d9f1d65905f0fa9fc10f1059d57c90eb6c537d58Аватар: Легенда о Корре / The Legend of Korra // Сезон 2, эпизоды 1 по 3 (из 14) (фэнтези, боевик, приключения, семейный, 2013) [HDTVRip 720p, Любительский (одноголосый закадровый от RainDeath)] Аватар: Легенда о Корре / The Legend of Korra // Сезон 2, эпизоды 1 по 3 (из 14) (фэнтези, боевик, приключения, семейный, 2013) [HDTVRip 720p, Любительский (одноголосый закадровый от RainDeath)] " />

Аплоадер: Админ, дата: 21-09-2013, 19:49, торрент скачан: 359 раз

Понравилась раздача? Посмотрите эти:
  • Аватар: Легенда о Корре / The Legend of Korra // Сезон 2, Эпизоды с 1 по 14 ...
  • Аватар: Легенда о Корре / The Legend of Korra // Сезон 2, эпизоды 1 по 14 ( ...
  • Аватар: Легенда о Корре / The Legend of Korra // Сезон 2, эпизоды с 1 по 14 ...
  • Аватар: Легенда о Корре / The Legend of Korra // Сезон 2, эпизоды 1 по 9 (и ...
  • Аватар: Легенда о Корре / The Legend of Korra // Сезон 2, эпизоды с 1 по 10 ...
  • Ледяной / The Iceman (Ариэль Вромен, драма, криминал, биография, 2013) [BDR ...
  • Аватар: Легенда о Корре / The Legend of Korra // Сезон 2, эпизоды с 1 по 4 ...
  • Аватар: Легенда о Корре / The Legend of Korra // Сезон 2, эпизоды 1 по 8 (и ...
  • Аватар: Легенда о Корре / The Legend of Korra // Сезон 2, эпизоды 1 по 8 (и ...
  • Аватар: Легенда о Корре / The Legend of Korra // Сезон 2, эпизоды с 1 по 8 ...
  • Аватар: Легенда о Корре / The Legend of Korra // Сезон 2, эпизод 1 (из 14) ...
  • Аватар: Легенда о Корре / The Legend of Korra // Сезон 1, эпизоды с 1 по 12 ...
  • Чемпионат Франции 2013-2014 / 1-й тур / Обзор Матчей / Спорт 1 [12.08.2013, ...
  • Чемпионат Испании 2012-13 / 34-й тур / Обзор Тура / НТВ+ [06.05.2013, 720p, ...
  • UFC The Ultimate 100 Knockouts - PPV [MMA,2013, HDTVRip 720p]
  • One Piece Film Z / Ван Пис фильм 11 // Фильм 11 (из 11) (2012 год) [HDTVRip ...
  • Чемпионат Европы 2012 / 1/2 финала / Португалия - Испания / Спорт 1 HD [Фу ...
  • Чемпионат Европы 2012 / 1/2 финала / Германия - Италия / Спорт 1 HD [Футбо ...
  • Mylene Farmer / Du Temps [2011, Pop, HDTVRip]
  • Mylene Farmer / Bleu Noir [2011, Pop, HDTVRip]
  • Информация
    Посетители, находящиеся в группе Гости, не могут оставлять комментарии к данной публикации.