вход на сайт

Имя пользователя :
Пароль :

Восстановление пароля Регистрация
Ну, погоди! // Сезон 1, эпизоды с 1 по 16 (из 20) (мультфильм, комедия, семейный, 1969-1986) [BDRip-AVC, Оригинал]
Рейтинг:
(голосов: 1)



[img]{THEME}/images/logopost.png[/img]



Ну, погоди!

Год выпуска: 1969-1986
Страна: СССР
Производство: Союзмультфильм
Жанр: Мультфильм, комедия, семейный

Режиссёр: Вячеслав Котеночкин, Юрий Бутырин, Владимир Тарасов, Федор Иванов
Роли озвучивали: Клара Румянова (Заяц) , Анатолий Папанов (Волк), Геннадий Хазанов (диктор ЦТ), Владимир Сошальский (Бегемот).

Перевод: Оригинал
Субтитры: нет

Описание: "Ну, погоди!" — мультфильм, не нуждающийся в представлении. Веселые приключения неразлучной парочки — хулигана Волка и смышленого Зайца. Любимые с детства сцены погонь, ссор и примирений, шутки и мелодии.

"Список серий:" ▼01. На пляже
02. В парке отдыха
03. Гонка
04. На стадионе
05. На улице
06. В деревне
07. На корабле
08. Новый год
09. В телестудии
10. На стройке
11. В цирке
12. В музее
13. Олимпиада - 80
14. Дом техников
15. Дом культуры
16. В сказке

IMDB: рейтинг 9.000/1577
КиноПоиск: рейтинг 8.687/18041

Все раздачи мультсериала

Качество: BDRip-AVC (Blu-Ray (1080p))
Продолжительность: по ~ 00:09:00

Формат: MKV
Видео кодек: MPEG-4 AVC
Аудио кодек: AC3
Видео: MPEG-4 AVC, ~ 3500 Кбит/с, 764x576 (1-8 ), 772x576 (9-16), 25.000 кадр/с
Аудио: AC3, 6ch,448 кб/с

"MediaInfo" ▼General
Unique ID : 217082579101579851634444364604766884689 (0xA350957DB97BE7E3A79700FDF86B1351)
Complete name : D:Nu.pogodi.vipusk.01-16.1969-1986.x264.[mgt.kz]Nu.pogodi.vipusk.01.1969-1986.x264.BDRip(AVC)-AVCurtain.mkv
Format : Matroska
Format version : Version 2
File size : 269 MiB
Duration : 9mn 30s
Overall bit rate : 3 949 Kbps
Movie name : AVCurtain
Encoded date : UTC 2012-02-12 15:19:01
Writing application : mkvmerge v4.9.1 (Ich will) сборка от Jul 11 2011 23:53:15
Writing library : libebml v1.2.1 + libmatroska v1.1.1

Video
ID : 1
Format : AVC
Format/Info : Advanced Video Codec
Format profile : [email protected]
Format settings, CABAC : Yes
Format settings, ReFrames : 8 frames
Codec ID : V_MPEG4/ISO/AVC
Duration : 9mn 30s
Bit rate : 3 500 Kbps
Width : 764 pixels
Height : 576 pixels
Display aspect ratio : 4:3
Frame rate : 25.000 fps
Color space : YUV
Chroma subsampling : 4:2:0
Bit depth : 8 bits
Scan type : Progressive
Bits/(Pixel*Frame) : 0.318
Stream size : 233 MiB (87%)
Writing library : x264 core 116 r2074 2641b9e
Encoding settings : cabac=1 / ref=8 / deblock=1:0:0 / analyse=0x3:0x133 / me=umh / subme=9 / psy=1 / psy_rd=0.40:0.00 / mixed_ref=1 / me_range=48 / chroma_me=1 / trellis=0 / 8x8dct=1 / cqm=0 / deadzone=21,11 / fast_pskip=0 / chroma_qp_offset=-2 / threads=3 / sliced_threads=0 / nr=0 / decimate=0 / interlaced=0 / bluray_compat=0 / constrained_intra=0 / bframes=7 / b_pyramid=2 / b_adapt=2 / b_bias=0 / direct=3 / weightb=1 / open_gop=0 / weightp=2 / keyint=250 / keyint_min=25 / scenecut=40 / intra_refresh=0 / rc_lookahead=50 / rc=2pass / mbtree=1 / bitrate=3500 / ratetol=1.0 / qcomp=0.60 / qpmin=10 / qpmax=51 / qpstep=4 / cplxblur=20.0 / qblur=0.5 / ip_ratio=1.40 / aq=1:0.60
Language : Russian
Default : Yes
Forced : No

Audio
ID : 2
Format : AC-3
Format/Info : Audio Coding 3
Mode extension : CM (complete main)
Codec ID : A_AC3
Duration : 9mn 30s
Bit rate mode : Constant
Bit rate : 448 Kbps
Channel(s) : 6 channels
Channel positions : Front: L C R, Side: L R, LFE
Sampling rate : 48.0 KHz
Bit depth : 16 bits
Compression mode : Lossy
Stream size : 30.5 MiB (11%)
Language : Russian
Default : Yes
Forced : No


85737a571625a0b9791498fc582a22d1c45035b2Ну, погоди! // Сезон 1, эпизоды с 1 по 16 (из 20) (мультфильм, комедия, семейный, 1969-1986) [BDRip-AVC, Оригинал] Ну, погоди! // Сезон 1, эпизоды с 1 по 16 (из 20) (мультфильм, комедия, семейный, 1969-1986) [BDRip-AVC, Оригинал] " />

Аплоадер: Админ, дата: 26-03-2012, 10:13, торрент скачан: 359 раз

Понравилась раздача? Посмотрите эти:
  • FLO / NRG [2012, Pop, Dance, MasterRip]
  • UFC - Best Of 2012 Year In Review[MMA,2013, BDRip 540p]
  • Зубная фея 2 / Tooth Fairy 2 (Алекс Замм, комедия, семейный, 2012) [BDRip 7 ...
  • Черное золото / Black Gold (Жан-Жак Анно, Драма, 2011) [BDRip-AVC, Професси ...
  • Странная жизнь Тимоти Грина / The Odd Life of Timothy Green (Питер Хеджес, ...
  • [3D] Кот и цыплёнок / I Tawt I Taw а Puddy Tat (Мэттью ОКаллаган / Matthew ...
  • Ну, погоди! Сезон 1, эпизоды с 1 по 16 (из 20) (Вячеслав Котеночкин, Юрий ...
  • Ну, погоди!, 16 выпусков (Вячеслав Котеночкин, Юрий Бутырин, Владимир Тар ...
  • Ледниковый период: Гигантское Рождество / Ice Age: A Mammoth Christmas (Кар ...
  • Чаббчаббы спасают Рождество / The Chubbchubbs Save Xmas (Коуди Камерон, мул ...
  • Рыжий пес / Red Dog (Крив Стендерс, драма, комедия, семейный, 2011) [BDRip ...
  • Проект X: Дорвались / Project X (Нима Нуризаде, комедия, 2012) [BDRip 720p, ...
  • Джок / Jock (Дункан МакНили, мультфильм, комедия, приключения, семейный, 20 ...
  • «Весёлые» каникулы / Get the Gringo (Адриан Грюнберг, Боевик, комедия, 2012 ...
  • Пираты! Банда неудачников / The Pirates! Band of Misfits (Питер Лорд, Джефф ...
  • Ворон / The Raven (Джеймс МакТиг, Триллер, детектив, 2012) [BDRip 720p, Дуб ...
  • Футбольный клуб / Чемпионат Европы 2012 / НТВ+ [Футбол, 08.06.2012, HDTVRip ...
  • Чемпионат Европы 2012 / 1/4 финала / Чехия - Португалия / Спорт 1 HD [Футбо ...
  • Чемпионат Европы 2012 / 1/2 финала / Португалия - Испания / Спорт 1 HD [Фу ...
  • Чемпионат Европы 2012 / 1/2 финала / Германия - Италия / Спорт 1 HD [Футбо ...
  • Chelsea - Season Review 2011-12 / Челси - Обзор Сезона 2011-12 [ Футбол, 20 ...
  • Mylene Farmer / Du Temps [2011, Pop, HDTVRip]
  • Mylene Farmer / Bleu Noir [2011, Pop, HDTVRip]
  • PBS: Природа – Гималаи / PBS: Nature – The Himalayas (Крис Морган, Докумен ...
  • Мульт-Салют. 10 ч. из 30: Ну, погоди! Сезон 1, эпизоды с 1 по 16 (мультфил ...
  • Информация
    Посетители, находящиеся в группе Гости, не могут оставлять комментарии к данной публикации.