вход на сайт

Имя пользователя :
Пароль :

Восстановление пароля Регистрация
Паровозик Тишка / Сезон 1, Эпизоды с 1 по 12 (из 12) (мультфильм, короткометражка, комедия, 2012) [DVDRip-AVC, Не требуется]
Рейтинг:
(голосов: 1)



[img]{THEME}/images/logopost.png[/img]



Паровозик Тишка

Эпизоды с 1 по 12 (из 12)

Год выпуска: 2012
Страна: Россия
Производство: АА СТУДИО
Жанр: мультфильм, короткометражка, комедия

Режиссёр: Денис Червяцов, Святослав Ушаков, Алексей Котеночкин
В ролях: Федор Дахненко, Константин Хабенский, Анна Михалкова, Армен Джигарханян

Перевод: Не требуется
Субтитры: нет

Описание: В далеком красочном городе обитают самые настоящие живые паровозы. Кроме взрослых составов, ежедневно уезжающих на работу, есть и самые маленькие, среди которых наши главные герои — паровозик Тишка и его друзья. С ними вечно случается что-то забавное, вместе узнают, стоит ли верить в чудеса, что важнее, победа или дружба и нужно ли бояться пробовать что-то новое.

Список эпизодов: ▼Эпизод 1. Сон
Эпизод 2. Дерево желаний
Эпизод 3. Чего боится страх
Эпизод 4. Лучший подарок
Эпизод 5. Поэзия
Эпизод 6. Кто быстрее
Эпизод 7. Клякса
Эпизод 8. Букет для Эльки
Эпизод 9. Василич не хочет дружить
Эпизод 10. Секреты от друзей
Эпизод 11. Самый лучший цирк
Эпизод 12. Команда



Все раздачи сериала

Качество: DVDRip-AVC
Продолжительность: ~00:05:00 серия

Формат: MKV
Видео кодек: H264
Аудио кодек: АС3
Свойства видео: [email protected] (16:9) PAL, 25.000 fps, Advanced Video Codec ~ 2006 kbps avg, 0.193 bit/pixel
Свойства аудио: 48 kHz, АС3, 2 ch, 192 kbps avg

MediaInfo ▼Формат : Matroska
Версия формата : Version 2
Размер файла : 87,1 Мбайт
Продолжительность : 5 м. 32 с.
Общий поток : 2198 Кбит/сек
Дата кодирования : UTC 2013-07-22 12:19:37
Программа кодирования : mkvmerge v5.0.1 (Es ist Sommer) built on Nov 6 2011 16:23:40
Библиотека кодирования : libebml v1.2.2 + libmatroska v1.3.0
Видео
Идентификатор : 1
Формат : AVC
Формат/Информация : Advanced Video Codec
Профиль формата : [email protected]
Параметр CABAC формата : Да
Параметр ReFrames формата : 11 кадров
Идентификатор кодека : V_MPEG4/ISO/AVC
Продолжительность : 5 м. 32 с.
Битрейт : 2006 Кбит/сек
Ширина : 720 пикселей
Высота : 576 пикселей
Соотношение сторон : 16:9
Режим частоты кадров : Постоянный
Частота кадров : 25,000 кадров/сек
Стандарт вещания : PAL
Цветовое пространство : YUV
Субдискретизация насыщенности : 4:2:0
Битовая глубина : 8 бит
Тип развёртки : Прогрессивная
Бит/(Пиксели*Кадры) : 0.193
Размер потока : 77,8 Мбайт (89%)
Библиотека кодирования : x264 core 130 r2273 b3065e6
Настройки программы : cabac=1 / ref=11 / deblock=1:-2:-1 / analyse=0x3:0x113 / me=umh / subme=9 / psy=1 / psy_rd=1.00:0.20 / mixed_ref=1 / me_range=32 / chroma_me=1 / trellis=1 / 8x8dct=1 / cqm=0 / deadzone=21,11 / fast_pskip=0 / chroma_qp_offset=-3 / threads=9 / lookahead_threads=1 / sliced_threads=0 / nr=0 / decimate=0 / interlaced=0 / bluray_compat=0 / constrained_intra=0 / bframes=8 / b_pyramid=2 / b_adapt=2 / b_bias=0 / direct=3 / weightb=1 / open_gop=0 / weightp=2 / keyint=250 / keyint_min=25 / scenecut=40 / intra_refresh=0 / rc_lookahead=60 / rc=2pass / mbtree=1 / bitrate=2006 / ratetol=1.0 / qcomp=0.60 / qpmin=0 / qpmax=69 / qpstep=4 / cplxblur=20.0 / qblur=0.5 / ip_ratio=1.40 / aq=1:1.00
Default : Да
Forced : Нет
Аудио
Идентификатор : 2
Формат : AC-3
Формат/Информация : Audio Coding 3
Расширение режима : CM (complete main)
Параметр Endianness формата : Big
Идентификатор кодека : A_AC3
Продолжительность : 5 м. 32 с.
Вид битрейта : Постоянный
Битрейт : 192 Кбит/сек
Каналы : 2 канала
Расположение каналов : Front: L R
Частота : 48,0 КГц
Битовая глубина : 16 бит
Метод сжатия : С потерями
Размер потока : 7,61 Мбайт (9%)
Default : Да
Forced : Нет


Как закачать отдельный файл из торрента!


Наши рипы / Набор в РГ / Стол заказов РГ / Стол заказов по РИПам



9c719d45930f5950d613353fe79aeb0819fc3cb7Паровозик Тишка / Сезон 1, Эпизоды с 1 по 12 (из 12) (мультфильм, короткометражка, комедия, 2012) [DVDRip-AVC, Не требуется] Паровозик Тишка / Сезон 1, Эпизоды с 1 по 12 (из 12) (мультфильм, короткометражка, комедия, 2012) [DVDRip-AVC, Не требуется] " />

Аплоадер: Админ, дата: 9-08-2013, 00:14, торрент скачан: 359 раз

Понравилась раздача? Посмотрите эти:
  • Околофутбола (Антон Борматов, драма, криминал, 2013) [DVDRip-AVC, Не требуе ...
  • Усатый нянь (Владимир Грамматиков, комедия, семейный, 1977) [DVDRip-AVC, Не ...
  • Интимные места (Наталья Меркулова, Алексей Чупов, драма, мелодрама, 2013) [ ...
  • Марафон (Карен Оганесян, комедия, 2013) [DVDRip-AVC, Не требуется]
  • Игра в правду (Виктор Шамиров, комедия, 2013) [DVDRip-AVC, Не требуется]
  • Незнакомец внутри / The Stranger Within (Adam Neutzsky-Wulff, триллер, 2013 ...
  • А зори здесь тихие... // Эпизоды с 1 по 12 (из 12) (Боевик, драма, военный ...
  • Железяки / Yak (Прапас Чолсаранонт, мультфильм, 2012) [DVDRip-AVC, Професси ...
  • Паровозик Тишка / Сезон 1, Эпизоды с 1 по 12 (из 12) (мультфильм, короткоме ...
  • 21 и больше / 21 & Over (Джон Лукас, Скотт Мур, комедия, 2013) [DVDRip-AVC, ...
  • Тишка-паровозик / Сезон 1, Эпизоды с 1 по 16 (из 16 ) (Мультсериал, Анимаци ...
  • Чемпионат Англии 2012-2013 / 25-й тур / Обзор / Суббота / BBC Sport [2013 г ...
  • Самоубийцы (Егор Баранов, комедия, 2012) [DVDRip-AVC, Оригинал]
  • Новогодняя песенка Деда Мороза (Александр Татарский,мультфильм, короткометр ...
  • Сказка о мертвой царевне и о семи богатырях (Иван Иванов-Вано,мультфильм, к ...
  • Аленький цветочек (Лев Атаманов,мультфильм, короткометражка, фэнтези, мелод ...
  • Котенок с улицы Лизюкова (Вячеслав Котеночкин, Мультфильм, 1988) [DVDRip-AV ...
  • Белка: Не время для орехов / Scrat: No Time for Nuts (Крис Рено, Майк Труме ...
  • Безумные мелодии: Дорожный бегун и койот / Looney Tunes: Road Runner & Coyo ...
  • Скрат: Потерянный орех / Scrat: Gone Nutty (Карлос Салдана, короткометражка ...
  • Лоракс: Серенада / The Lorax: Serenade (Кайл Балда, мультфильм, комедия, му ...
  • Большой отрыв БОБа / B.O.B.s Big Break (Роберт Портер, короткометражка, ан ...
  • Чемпионат Мира 2014 | Отборочный турнир | Европа | World Cup Qualifiers - H ...
  • Чемпионат Англии 2012-2013 / 19-й тур / Обзор / Среда / BBC Sport [2012 г., ...
  • Кубок Англии 2012-2013 / 3-й раунд / Обзор / Воскресенье / ITV Sport [2013 ...
  • Информация
    Посетители, находящиеся в группе Гости, не могут оставлять комментарии к данной публикации.