вход на сайт

Имя пользователя :
Пароль :

Восстановление пароля Регистрация
Фабрика Героев / Hero Factory // Сезон 1, Эпизод 1 (из 4) (Марк Балдо, мультфильм, приключения, 2010) [DVDRip, Дублированный [лицензия]]
Рейтинг:
(голосов: 1)



[img]{THEME}/images/logopost.png[/img]



• Фабрика Героев / Hero Factory •
• Сезон 1, Эпизод 1 (из 4) •
• Испытание Фёрно / Trials of Furno •

♥ Год выпуска: 2010
♥ Страна: США
♥ Производство: Threshold Animation Studios
♥ Жанр: мультфильм, приключения
♥ Режиссёр: Марк Балдо
♥ В ролях: Кристофер Б. Дункан, Брайтон МакКлур, Джин Луиза Келли, Эрик Кристиан Олсен, Джон Шнайдер, Стефен Стэнтон, Генри Уинклер, Чарльз Адлер, Джоэл Светов, Джефф Беннетт.
♥ Перевод: Дублированный [лицензия]
♥ Субтитры: Отсутствуют
♥ Описание:
Добро пожаловать на Фабрику Героев!
Здесь создают самых совершенных Героев. Их миссия — защищать вселенную от зла. Во главе команды Альфа стоит бесстрашный лидер Стормер, за ним следуют мастера своего дела Балк и Стрингер, а также новобранцы Фурно, Бриз и Сурж.
Они сражаются с такими ужасными монстрами, как ядовитый Корродер, вооруженный вращающимися клинками Ротор, и импульсивный снайпер Эксплод. Но эти негодяи работают не одни. Герой-отступник из прошлого Стормера хочет уничтожить Фабрику Героев и погрузить всю галактику в хаос. Для того чтобы остановить его, Героям понадобятся все их силы, смекалка и отвага.

♥ Описание эпизода: Отсутствует


♥ Качество: DVDRip
♥ Продолжительность: 01:23:17

♥ Формат: AVI
♥ Видео кодек: XviD
♥ Аудио кодек: AC-3
♥ Видео: 720x400 (1.8:1), 25.000 fps, 2 143 Kbps avg, 0.298 bit/pixel
♥ Аудио: AC-3, 48 kHz, 2 ch, 192 kbps avg (RUS)
MediaInfo ▼TextGeneral
Video
ID : 0
Format : MPEG-4 Visual
Format profile : Advanced [email protected]
Format settings, BVOP : 1
Format settings, QPel : No
Format settings, GMC : No warppoints
Format settings, Matrix : Custom
Codec ID : XVID
Codec ID/Hint : XviD
Duration : 1h 23mn
Bit rate : 2 143 Kbps
Width : 720 pixels
Height : 400 pixels
Display aspect ratio : 16:9
Frame rate : 25.000 fps
Color space : YUV
Chroma subsampling : 4:2:0
Bit depth : 8 bits
Scan type : Progressive
Compression mode : Lossy
Bits/(Pixel*Frame) : 0.298
Stream size : 1.25 GiB (91%)
Writing library : XviD 58

Audio
ID : 1
Format : AC-3
Format/Info : Audio Coding 3
Format profile : Dolby Digital
Mode extension : CM (complete main)
Codec ID : 2000
Duration : 1h 23mn
Bit rate mode : Constant
Bit rate : 192 Kbps
Channel(s) : 2 channels
Channel positions : Front: L R
Sampling rate : 48.0 KHz
Bit depth : 16 bits
Compression mode : Lossy
Stream size : 114 MiB (8%)
Alignment : Split accross interleaves
Interleave, duration : 40 ms (1.00 video frame)
Interleave, preload duration : 500 ms
Релиз Группы "Virtus"

Стол заказов по рипам / Вступление в РГ / Благодарности, критика и другое


5db514b400a1ede1b5093a06691f2c298a877892Фабрика Героев / Hero Factory // Сезон 1, Эпизод 1 (из 4) (Марк Балдо, мультфильм, приключения, 2010) [DVDRip, Дублированный [лицензия]] Фабрика Героев / Hero Factory // Сезон 1, Эпизод 1 (из 4) (Марк Балдо, мультфильм, приключения, 2010) [DVDRip, Дублированный [лицензия]] " />

Аплоадер: Админ, дата: 9-03-2011, 20:48, торрент скачан: 359 раз

Понравилась раздача? Посмотрите эти:
  • Вирус / Flu (Ким Сон Су, Драма, 2013) [HDTVRip, Любительский (двухголосый з ...
  • Орудие смерти / A-i-deul... (Ли Гю Ман, Триллер, криминал, 2011) [DVDRip, П ...
  • Мужество / Wymyk (Грег Зглински, драма, 2011) [DVDRip, Любительский (одного ...
  • Звук моего голоса / Sound of My Voice (Зал Батманглидж, триллер, драма, 201 ...
  • 23:59 / 23:59 (Гилберт Чан, Ужасы, 2011) [HDRip, Любительский (одноголосый ...
  • Скуби-Ду! Маска Синего Сокола / Scooby-Doo! Mask Of The Blue Falcon (Оливье ...
  • Псы войны / The Dogs of War (Джон Ирвин, боевик, драма, приключения, военны ...
  • Тюремщик / Screwed (Рег Тревисс / Reg Traviss, Драма, 2011) [DVDRip , Люби ...
  • Плохая актриса / Bad Actress (Роберт Ли Кинг, комедия, 2011) [DVDRip, Профе ...
  • Джефф, живущий дома / Jeff, Who Lives at Home (Джей Дюпласс, Марк Дюпласс, ...
  • Захват / Carjacked (Джон Бонито, триллер, 2011)[BDRip, Профессиональный (мн ...
  • Чемпионат Европы 2012 / Группа C / 1-й тур / Ирландия — Хорватия / ТРК Футб ...
  • Олимпиада 2012 / Мужчины / Группа D / 1-й тур / Испания — Япония / НТВ+ [Фу ...
  • Олимпиада 2012 / Футбол / Мужчины / Группа A / 3-й тур / Великобритания - У ...
  • Tank Feat. T.I. & Kris Stephens / Compliments [2012, RnB,Hip-Hop, HDRip]
  • Три богатыря на дальних берегах (Константин Феоктистов, мультфильм, комедия ...
  • Скуби-Ду: Нападение Пантазаура / Scooby-Doo! Legend of the Phantosaur (Дугл ...
  • Фабрика Героев / Hero Factory // Сезон 1-3, эпизоды с 1 по 7 (из 7) (фэнтаз ...
  • Чемпионат Англии 2011-2012 / Championship / 45-й Тур / Обзор Матчей / НТВ+ ...
  • Чемпионат Европы 2012 / Группа B / 1-й тур / Германия - Португалия / Спорт ...
  • NBA Finals 2012 / Sportscenter / В преддверии 3-ей игры / Viasat Sport [Бас ...
  • Супершторм в Сиэтле / Seattle Superstorm (Джейсон Бурк, фантастика, боевик ...
  • Чемпионат России 2012-13 / 1-й тур / Мордовия - Локомотив / НТВ+ [Футбол, 2 ...
  • Олимпиада 2012 / Женщины, Мужчины / Плавание / Квалификация / НТВ+ [30.07.2 ...
  • Ван Пис / One Piece / Сезон 15, Эпизод 559 (2012) [HDTVRip, любительская (о ...
  • Информация
    Посетители, находящиеся в группе Гости, не могут оставлять комментарии к данной публикации.