вход на сайт

Имя пользователя :
Пароль :

Восстановление пароля Регистрация
(2002) ВЛАДИМИР ШАИНСКИЙ / Пусть бегут неуклюже… (Авторская песня, детская музыка, OST) [FLAC (image+.cue), lossless] [БС1602CD]
Рейтинг:
(голосов: 1)



[img]{THEME}/images/logopost.png[/img]



Композитор: Владимир Шаинский
Альбом: Пусть бегут неуклюже…
Тип альбома: студийный
Год выпуска: 2002
Лейбл: ООО "Би Смарт" [БС 16 02 CD]
Жанр: OST, детская музыка, авторская песня
Формат: FLAC (image+.cue)
Битрейт: lossless
Продолжительность: 47:44.267 (126314160 samples)
Обложки: включены, 300dpi JPG
Описание: Песни на музыку Владимира Яковлевича Шаинского (p. 1925) — российского и советского композитора. Известен как автор нескольких десятков песен для детей, в том числе музыки для мультфильмов, среди которых, например, серия мультфильмов про Чебурашку и крокодила Гену.
Внимание! Треки №2 и №5, представленные на диске, аранжированы и перезаписаны в 2000 году.

Tреклист:01. Песенка крокодила Гены...(3:03)
02. Облака...(5:13)
03. Ожившая кукла...(3:25)
04. Песенка о кузнечике...(2:18)
05. Песня мамонтёнка...(2:25)
06. Чему учат в школе...(2:04)
07. Дважды два - четыре...(2:59)
08. Подарки...(2:52)
09. Песня Чебурашки...(1:36)
10. Улыбка...(3:19)
11. Песенка про папу...(2:19)
12. Весёлая фуга (вокализ)...(1:49)
13. Голубой вагон...(3:02)
14. Игра...(2:27)
15. Рассвет-чародей...(3:26)
16. Пропала собака...(3:34)
17. Всё мы делим пополам...(1:53)
EAC log ▼TextExact Audio Copy V0.99 prebeta 3 from 28. July 2007

Отчёт EAC об извлечении, выполненном 13. сентября 2007, 20:38

Владимир Шаинский / Пусть бегут неуклюже...

Дисковод: _NEC DVD_RW ND-3520AW Adapter: 1 ID: 2

Режим чтения : Достоверность
Использование точного потока : Да
Отключение кэша аудио : Да
Использование указателей C2 : Нет

Коррекция смещения при чтении : 48
Способность читать области Lead-in и Lead-out : Нет
Заполнение пропущенных сэмплов тишиной : Да
Удаление блоков с тишиной в начале и конце : Нет
При вычислениях CRC использовались нулевые сэмплы : Да
Интерфейс : Встроенный Win32-интерфейс для Win NT/2000

Выходной формат : Внутренние WAV-операции
Формат сэмплов : 44.100 Гц; 16 бит; стерео


TOC извлечённого CD

Трек | Старт | Длительность | Начальный сектор | Конечный сектор
---------------------------------------------------------------------
1 | 0:00.00 | 3:02.49 | 0 | 13698
2 | 3:02.49 | 5:13.32 | 13699 | 37205
3 | 8:16.06 | 3:25.12 | 37206 | 52592
4 | 11:41.18 | 2:17.68 | 52593 | 62935
5 | 13:59.11 | 2:25.19 | 62936 | 73829
6 | 16:24.30 | 2:03.46 | 73830 | 83100
7 | 18:28.01 | 2:59.12 | 83101 | 96537
8 | 21:27.13 | 2:52.21 | &
76fef123410b8c5e855a2829bfc684a1d7bb0c65(2002) ВЛАДИМИР ШАИНСКИЙ / Пусть бегут неуклюже… (Авторская песня, детская музыка, OST) [FLAC (image+.cue), lossless] [БС1602CD] (2002) ВЛАДИМИР ШАИНСКИЙ / Пусть бегут неуклюже… (Авторская песня, детская музыка, OST) [FLAC (image+.cue), lossless] [БС1602CD] " />

Аплоадер: Админ, дата: 9-10-2010, 02:52, торрент скачан: 359 раз

Понравилась раздача? Посмотрите эти:
  • (2000) Lenny Kravitz / Greatest Hits (Rock, Funk) [FLAC (image+.cue), lossl ...
  • (2002) a-ha / Lifelines (Alternative Rock, Synth-pop ) [FLAC (image + .cue ...
  • (2012) Григорий Лепс / Полный вперёд (Шансон) [FLAC (image+.cue), Lossless ...
  • (2007) СТАС МИХАЙЛОВ - Лучшие песни (Шансон) [APE (image + .cue) lossless]
  • (1994) Joy / Grand Collection (EuroDisco) [FLAC (image+.cue) lossless]
  • (2010) Ласковый Май (Солист Юра Шатунов) / Оригинальные записи 1988-1989 (2 ...
  • (2005) Владимир Высоцкий - Все военные песни (Авторская песня) [APE (image+ ...
  • (2006) Батырхан Шукенов/ Отан Ана (Pop) [FLAC (image+.cue) lossless]
  • (1985) BABYS GANG / Challenger (Pop,Italo Disco) [APE(image+.cue)lossless] ...
  • (2011) Within Temptation / The Unforgiving (Symphonic Gothic Metal) [FLAC ( ...
  • (2011) Blues Cousins / KGB Blues (Blues Rock) [FLAC (image+.cue), lossless] ...
  • (2011) ДДТ / Иначе/P.S. (Русский Рок) [FLAC(image+.cue), lossless]
  • (2007) Хор Турецкого / Великая Музыка (2CD) (Choir, Folk, Aсapella) [FLAC ( ...
  • (Дискография, 2006-2011) Светлана Копылова (Православная песня) [FLAC (imag ...
  • (2012) Serebro / Mama Lover (Монолит) (Pop) [FLAC (image+.cue), lossless]
  • ( 2001) Воскресение / Звездная коллекция (Rock) [FLAC (image+.cue) lossless ...
  • (2001) Катя Огонёк / Дорожный роман (Шансон) [FLAC (image+.cue)]
  • (2011-2012) Владимир Высоцкий / Спасибо, что живой (Коллекция изд. Амфора, ...
  • (2010) Александр Серов / Лучшие песни (серия «НОВАЯ КОЛЛЕКЦИЯ») (Pop) [Flac ...
  • (1995) Yaki-Da / Pride (Pop, Eurodance) [FLAC (image+.сue), lossless]
  • (2000) Парк Горького (Gorky Park) / The Best (Glam Metal/Hard Rock) [FLAC ...
  • (2004) Ex-Сектор Газа / Огненный рай (Punk-Rock) [FLAC (image+.cue), lossle ...
  • (2008) Студия 80 / Придуманный Мир (Pop) [FLAC (image+.cue), lossless]
  • (2012) Иван Кучин / Небесные цветы (Chanson) [FLAC (image+.cue), lossless]
  • (2012) Денис Майданов / Лучшие песни (Серия "Музыка на почте") (Шансон) [FL ...
  • Информация
    Посетители, находящиеся в группе Гости, не могут оставлять комментарии к данной публикации.