вход на сайт

Имя пользователя :
Пароль :

Восстановление пароля Регистрация
(2CD) Александр Вертинский — 49 шедевров (Золотая коллекция) - 2004, [APE (image+.cue), lossless]
Рейтинг:
(голосов: 1)



[img]{THEME}/images/logopost.png[/img]



Александр Вертинский / Золотая коллекция[/b]

Год выпуска диска: 2004
Лэйбл: Россия, SAUNDBUGStudio [LDB1766-1/2]

Качество: lossless
Формат: APE (image+.cue)
Обложки: полностью включены (2 - 5 Mpx), PNG
Продолжительность: CD1 01:18:03 + СD2 01:14:17 (2:32:20)

Трэклист:

CD1:

01. Я сегодня смеюсь над собой...(2:52)
02. Лиловый негр.................(2:42)
03. Ваши пальцы пахнут ладаном...(2:42)
04. Злые духи....................(2:56)
05. Пани Ирена...................(2:46)
06. Бразильский крейсер..........(2:39)
07. Минуточку....................(2:40)
08. За кулисами..................(2:37)
09. Оловянное сердце.............(3:00)
10. То, что я должен сказать.....(3:12)
11. Девочка у моря...............(2:45)
12. У высокого берега............(2:17)
13. Бал Господень................(3:01)
14. Черный карлик................(2:28)
15. Баллада о короле.............(3:05)
16. Сумасшедший шарманщик........(3:11)
17. Пес Дуглас...................(2:39)
18. Попугай Флобер...............(2:30)
19. Матросы......................(3:12)
20. Чужие города.................(2:58)
21. Над розовым морем............(3:18)
22. Прощальный ужин..............(6:05)
23. Мадам, уже падают листья.....(4:31)
24. Без женщин...................(3:43)
25. Маленькие актрисы............(4:01)

CD2:

01. Танго Магнолия.............(2:48)
02. Снился мне сад...............(3:20)
03. Дорогой длинной..............(2:53)
04. Молись, кунак................(2:47)
05. Каторжная....................(2:59)
06. Минута на пути...............(3:05)
07. Желтый ангел.................(3:22)
08. Снежная колыбельная..........(2:59)
09. Маленький креольчик..........(2:47)
10. Джонни.......................(2:53)
11. Марлен.......................(3:12)
12. Полукровка...................(2:44)
13. Темнеет дорога...............(2:48)
14. В синем и далеком океане.....(3:06)
15. Поздняя встреча..............(2:51)
16. Ты успокой меня..............(2:20)
17. В голубой далекой спаленке...(2:46)
18. Дым без огня.................(2:38)
19. Классическая.................(3:01)
20. Маленькая балерина...........(2:45)
21. Пикколо Бамбино..............(4:09)
22. Джимми-Пират.................(4:03)
23. Палестинское танго...........(3:19)
24. Дни бегут....................(4:31)


Отчёт EAC:
▼CD1:

Exact Audio Copy V0.99 prebeta 4 from 23. January 2008
Отчёт EAC об извлечении, выполненном 25. декабря 2008, 16:15
Александр Вертинский / Лучшее
Дисковод: ASUS CRW-5232AS Adapter: 3 ID: 0
Режим чтения : Достоверность
Использование точного потока : Да
Отключение кэша аудио : Да
Использование указателей C2 : Нет
Коррекция смещения при чтении : 6
Способность читать области Lead-in и Lead-out : Нет
Заполнение пропущенных сэмплов тишиной : Да
Удаление блоков с тишиной в начале и конце : Нет
При вычислениях CRC использовались нулевые сэмплы : Да
Интерфейс : Установленный внешний ASPI-интерфейс
Выходной формат : Monkeys Audio (без потерь)
Выбранный битрейт : Normal Lossless Compression
Качество : Высокий
Добавление ID3-тэга : Да
Утилита сжатия : C: Program FilesMonkeys AudioMAC.exe
TOC извлечённого CD
Трек | Старт | Длительность | Начальный сектор | Конечный сектор
---------------------------------------------------------------------
1 | 0:00.00 | 2:52.67 | 0 | 12966
2 | 2:52.67 | 2:42.09 | 12967 | 25125
3 | 5:35.01 | 2:42.63 | 25126 | 37338
4 | 8:17.64 | 2:56.22 | 37339 | 50560
5 | 11:14.11 | 2:46.73 | 50561 | 63083
6 | 14:01.09 | 2:39.00 | 63084 | 75008
7 | 16:40.09 | 2:40.25 | 75009 | 87033
8 | 19:20.34 | 2:37.00 | 87034 | 98808
9 | 21:57.34 | 3:00.00 | 98809 | 112308
10 | 24:57.34 | 3:12.49 | 112309 | 126757
11 | 28:10.08 | 2:45.62 | 126758 | 139194
12 | 30:55.70 | 2:17.69 | 139195 | 149538
13 | 33:13.64 | 3:01.48 | 149539 | 163161
14 | 36:15.37 | 2:28.63 | 163162 | 174324
15 | 38:44.25 | 3:05.37 | 174325 | 188236
16 | 41:49.62 | 3:11.38 | 188237 | 202599
17 | 45:01.25 | 2:39.34 | 202600 | 214558
18 | 47:40.59 | 2:30.37 | 214559 | 225845
19 | 50:11.
fbd97073c3ae839bf511a7c5673d8a9ba37e187d(2CD) Александр Вертинский — 49 шедевров (Золотая коллекция) - 2004, [APE (image+.cue), lossless] (2CD) Александр Вертинский — 49 шедевров (Золотая коллекция) - 2004, [APE (image+.cue), lossless] " />

Аплоадер: Админ, дата: 9-05-2009, 20:55, торрент скачан: 359 раз

Понравилась раздача? Посмотрите эти:
  • (2009) Воскресение / The Best (Rock ) [APE (image + .cue), lossless]
  • (2012) Григорий Лепс / Полный вперёд (Шансон) [FLAC (image+.cue), Lossless ...
  • (2004) ELLA FITZGERALD - The Best Of Ella Fitzgerald - Summertime(Vocal Jaz ...
  • (2005) Дильназ Ахмадиева — Золотой (Pop), (WV, image+.cue) [NL+0802] lossle ...
  • (2006)R-Tem - Voiceless Гимн Казантипа (Progressive House) [APE (image + cu ...
  • (дискография, 1994—2003) АЛЕКСАНДР ВЕРТИНСКИЙ — 6 CD (авторская песня, эстр ...
  • (2000) Tic Tac Toe / Ist der Ruf erst ruiniert... (Rap,Hip-hop) [Lossless, ...
  • (2008) НоГГано / Первый (Rap) [APE(image+cue), lossless]
  • (2010) Мафик / Ангел (Шансон) [FLAC(image+cue), lossless]
  • (1994) Joy / Grand Collection (EuroDisco) [FLAC (image+.cue) lossless]
  • (1988) James Last / Romantic Love Songs (Instrumental) [FLAC (image+.cue) l ...
  • (2010) Баста / Баста 3 (Rap) [APE (image+.cue), lossless]
  • (2010) ST1M / Октябрь (Rap) [APE(image+.cue), lossless]
  • (2006) Tokio / puls 200 (Alternative Rock / Pop Rock) [FLAC (image+.cue) lo ...
  • (2010) ДиДюЛя / Аромат (flamenco, instrumental, folk) [APE (image + .cue), ...
  • (1981) Boney M / Christmas Album (UnRemaster) (Disco) [APE (image + .cue), ...
  • (1984) Boney M / Ten Thousand Lightyears (Disco) [APE (image+.cue) lossles ...
  • (2010) ДаБац (Da Budz) / Вершки Да Корешки(Rap) [APE (image+.cue), lossless ...
  • (2011) Within Temptation / The Unforgiving (Symphonic Gothic Metal) [FLAC ( ...
  • (2004) Genesis / Platinum Collection (Art Rock) [FLAC (image+.cue), lossles ...
  • (Дискография, 2006-2011) Светлана Копылова (Православная песня) [FLAC (imag ...
  • (2009) Rihanna / Rated R (R`n`B) [APE (image+.cue)]
  • ( 2001) Воскресение / Звездная коллекция (Rock) [FLAC (image+.cue) lossless ...
  • (2004) Ex-Сектор Газа / Огненный рай (Punk-Rock) [FLAC (image+.cue), lossle ...
  • (2008) Студия 80 / Придуманный Мир (Pop) [FLAC (image+.cue), lossless]
  • Информация
    Посетители, находящиеся в группе Гости, не могут оставлять комментарии к данной публикации.