вход на сайт

Имя пользователя :
Пароль :

Восстановление пароля Регистрация
Булат Окуджава — Российские Барды — 2002, WAVPack (image+.cue), lossless
Рейтинг:
(голосов: 1)



[img]{THEME}/images/logopost.png[/img]



Булат Окуджава - Российские Барды

Жанр: Авторская песня
Год выпуска диска: 2002
Производитель диска: Россия, Moroz Records [MR 02493 CD]

Аудио кодек: WAVPack
Тип рипа: image+.cue
Битрейт аудио: lossless
Продолжительность: 0:54:47

Треклист:
▼01. Надежды маленький оркестрик (2:06)
02. По смоленской дороге (2:05)
03. Песенка об Арбате (2:36)
04. Песенка о пехоте (2:19)
05. Песенка о солдатских сапогах (2:01)
06. До свидания, мальчики (2:50)
07. Песенка о Леньке Королеве (2:06)
08. Старая солдатская песня (2:35)
09. Дальняя дорога (2:54)
10. Батальное полотно (1:50)
11. Бумажный солдатик (1:06)
12. Ваше Величество Женщина (1:15)
13. Не бродяги, не пропойцы (1:51)
14. Песенка о голубом шарике (1:07)
15. Дежурный по апрелю (1:43)
16. Песенка о московском муравье (2:31)
17. Песенка о комсомольской богине (2:09)
18. Главная песенка (2:01)
19. Грузинская песня (1:59)
20. Песенка о Моцарте (2:46)
21. Союз друзей (2:57)
22. Когда воротимся мы в Портленд (3:07)
23. О Володе Высоцком (2:11)
24. Давайте восклицать! (1:41)
25. Мы за ценой не постоим (3:00)

LOG

Exact Audio Copy V0.99 prebeta 4 from 23. January 2008
EAC extraction logfile from 20. December 2008, 7:53
Булат Окуджава / Российские Барды
Used drive: Optiarc DVD RW AD-7203S Adapter: 0ID: 4
Read mode : Secure
Utilize accurate stream : Yes
Defeat audio cache: Yes
Make use of C2 pointers : No
Read offset correction: 48
Overread into Lead-In and Lead-Out: No
Fill up missing offset samples with silence : Yes
Delete leading and trailing silent blocks : No
Null samples used in CRC calculations : Yes
Used interface: Installed external ASPI interface
Used output format : Internal WAV Routines
Sample format: 44.100 Hz; 16 Bit; Stereo
TOC of the extracted CD
Track | Start|Length| Start sector | End sector
---------------------------------------------------------
1|0:00.00 |2:06.14 | 0| 9463
2|2:06.14 |2:05.14 |9464|18852
3|4:11.28 |2:35.70 | 18853|30547
4|6:47.23 |2:18.57 | 30548|40954
5|9:06.05 |2:01.02 | 40955|50031
6| 11:07.07 |2:50.07 | 50032|62788
7| 13:57.14 |2:06.27 | 62789|72265
 
71b9c7fc385d7e8f3d0bfcea9e7f7faa482eb45aБулат Окуджава — Российские Барды — 2002, WAVPack (image+.cue), lossless Булат Окуджава — Российские Барды — 2002, WAVPack (image+.cue), lossless " />

Аплоадер: Админ, дата: 6-01-2009, 10:56, торрент скачан: 359 раз

Понравилась раздача? Посмотрите эти:
  • Булат Окуджава — Дискография (9 CD), APE (image+.cue), lossless + полные те ...
  • (Дискография) ДЕЛЬФИН (DOLPHIN) (Alternative) [WavPack/image+cue, lossless] ...
  • (2008) Ассаи / Фаталист (Rap) [Ape(image+.cue), lossless]
  • (2008) Капа и Картель / Гламурным (Rap) [Ape(image+ cue), lossless]
  • (Дискография) Anberlin (Alternative Rock) [WAVPack (image+.cue) lossless]
  • (1989) Kaoma / Lambada (lambada / latin / ethnic) [FLAC (image+.cue), lossl ...
  • (2010) Сергей Трофимов (Трофим) / Всё не важно (Шансон) [FLAC(image+.cue), ...
  • (2010) Ассаи / Лифт (Rap) [FLAC(image+.cue), lossless]
  • (2010) Алиса / Ъ (The Hard Sign) (Hard Rock) [WavPack (iso.wv (image+.cue)) ...
  • (2007) Константин Никольский / Иллюзии (Rock) [APE (image + .cue), lossless ...
  • (2011) Mylene Farmer/ Bleu Noir (CDS + CDM) (Pop) [APE (image+.cue) lossles ...
  • (2011) Вася Обломов / Повести и Рассказы (Стёб-Хоп Шансон) [WavPack (image+ ...
  • (2008) Юрий Наумов / Рок как будто Блюз (Blues) [FLAC (Image+.cue), lossles ...
  • (2009) D-Man 55 / 7.62 Б-30 (Rap) [FLAC (image+.cue) lossless]
  • (1996) DJ Dado / The Album (Electronic, Dream trance) [FLAC (image+.сue), l ...
  • (2010) 2Pac / Greatest Hits (Rap & Hip Hop) [APE (image+.cue), lossless]
  • (2008) Булат Окуджава / Grand Collection [2 CD] (Авторская песня) [mp3, 320 ...
  • (2008) Булат Окуджава / Grand Collection [2 CD] (Авторская песня) [mp3, 320 ...
  • (2011) Yanni / Truth Of Touch (New Age) [FLAC (image+ .cue),lossless]
  • (2011) Стас Михайлов / Только ты (Шансон) [Flac(image+.cue)Lossless]
  • Информация
    Посетители, находящиеся в группе Гости, не могут оставлять комментарии к данной публикации.