вход на сайт

Имя пользователя :
Пароль :

Восстановление пароля Регистрация
(2012) Joe Bonamassa / Greatest Hits (2CD) (Blues-Rock) [APE (image+.cue), lossless]
Рейтинг:
(голосов: 1)



[img]{THEME}/images/logopost.png[/img]



Исполнитель: Joe Bonamassa
Страна: США
Альбом: Greatest Hits (2CD)
Тип альбома: Compilation
Год выпуска: 2012
Жанр: Blues-Rock
Страна (Издатель, Каталожный номер): Россия (Zebra Studio / Digital Rec., AZ 144)
Аудиокодек: APE (*.ape)
Тип рипа: image+.cue
Битрейт: lossless
Log-файл: Присутствует.
Наличие сканов в содержимом раздачи: Да. (JPG, 300DPI, 13,6MB)
Продолжительность: 02:33:38

Об исполнителе: Джо Бонамасса (англ. Joe Bonamassa; 8 мая 1977 года, Ютика, штат Нью-Йорк) — американский блюз-рок гитарист. Джо Бонамасса родился в Нью-Йорке 8 мая 1977 года. Его отец торговал гитарами, поэтому уже в четыре года паренек практиковался на детских моделях «Chiquita». По достижении семи лет Джо перешёл на взрослый инструмент и уже наяривал блюз как настоящий ветеран. Когда Бонамассе стукнуло десять, он начал выступать на публике, а в двенадцать его попросил открыть свой концерт сам Би Би Кинг. Маститый блюзмен был просто очарован игрой Бонамассы, а вслед за этим посыпались похвалы от таких артистов как Бадди Гай, Дэнни Гэттон, Роберт Крэй и Стивен Стиллс. Будучи ещё подростком, Джо познакомился с сыном басиста «Allman Brothers Band» Берри Оукли и организовал с ним проект «Bloodline».

Disc 1
Продолжительность: 01:16:20

Треклист:
01. Joe Bonamassa - The Ballad Of John Henry (06:25)
02. Joe Bonamassa - Happier Times (06:33)
03. Joe Bonamassa - Sloe Gin (08:11)
04. Joe Bonamassa - Look Over Yonders Wall (03:25)
05. Joe Bonamassa - Steal Your Heart Away (03:47)
06. Joe Bonamassa - Lonesome Road Blues (03:07)
07. Joe Bonamassa - Feelin Good (04:42)
08. Joe Bonamassa - Another Kind Of Love (03:09)
09. Joe Bonamassa - Slow Train (06:49)
10. Joe Bonamassa - One Of These Days (05:38)
11. Joe Bonamassa - You Upset Me Baby (03:36)
12. Joe Bonamassa - Night Life (03:23)
13. Joe Bonamassa - Reconsider Baby (06:51)
14. Joe Bonamassa - Long Distance Blues (03:52)
15. Joe Bonamassa - Stop! (06:45)Disc 2
Продолжительность: 01:17:18

Треклист:
01. Joe Bonamassa - Blues Deluxe (07:20)
02. Joe Bonamassa - A New Day Yesterday (04:45)
03. Joe Bonamassa - Jockey Full Of Bourbon (05:16)
04. Joe Bonamassa - Miss You, Hate You (03:37)
05. Joe Bonamassa - Black Night (04:19)
06. Joe Bonamassa - Last Kiss (07:10)
07. Joe Bonamassa - Baby You Gotta Change Your Mind (04:11)
08. Joe Bonamassa - Quarrymans Lament (05:16)
09. Joe Bonamassa - Story Of A Quarryman (04:58)
10. Joe Bonamassa - When The Fire Hits The Sea (03:53)
11. Joe Bonamassa - A New Day Yesterday (03:27)
12. Joe Bonamassa - Ball Peen Hammer (03:26)
13. Joe Bonamassa - Bridge To Better Days (05:07)
14. Joe Bonamassa - So Many Roads (07:05)
15. Joe Bonamassa - Woke Up Dreaming (02:51)
16. Joe Bonamassa - Dust Bowl (04:31)

CD1
Лог создания рипа (EAC log) ▼TextExact Audio Copy V0.99 prebeta 5 from 4. May 2009

Отчёт EAC об извлечении, выполненном 14. октября 2012, 9:12

Joe Bonamassa / Greatest Hits (CD1)

Дисковод: TOSHIBA ODD-DVD SD-M1802 Adapter: 1 ID: 0

Режим чтения : Достоверность
Использование точного потока : Да
Отключение кэша аудио : Да
Использование указателей C2 : Нет

Коррекция смещения при чтении : 691
Способность читать области Lead-in и Lead-out : Нет
Заполнение пропущенных сэмплов тишиной : Да
Удаление блоков с тишиной в начале и конце : Нет
При вычислениях CRC использовались нулевые сэмплы : Да
Интерфейс : Установленный внешний ASPI-интерфейс

Выходной формат : Внутренние WAV-операции
Формат сэмплов : 44.100 Гц; 16 бит; стерео

TOC извлечённого CD

Трек | Старт | Длительность | Начальный сектор | Конечный сектор
---------------------------------------------------------------------
1 | 0:00.00 | 6:25.26 | 0 | 28900
2 | 6:25.26 | 6:33.53 | 28901 | 58428
3 | 12:59.04 | 8:11.59 | 58429 | 95312
4 | 21:10.63 | 3:25.65 | 95313 | 110752
5 | 24:36.53 | 3:47.34 | 110753 | 127811
6 | 28:24.12 | 3:07.38 | 127812 | 141874
&
51f173261b41cef61fd87fc57e866f5f00ea52bc(2012) Joe Bonamassa / Greatest Hits (2CD) (Blues-Rock) [APE (image+.cue), lossless] (2012) Joe Bonamassa / Greatest Hits (2CD) (Blues-Rock) [APE (image+.cue), lossless] " />

Аплоадер: Админ, дата: 9-11-2012, 21:12, торрент скачан: 359 раз

Понравилась раздача? Посмотрите эти:
  • (2000) Lenny Kravitz / Greatest Hits (Rock, Funk) [FLAC (image+.cue), lossl ...
  • Joe Bonamassa / Tour De Force. Live In London. The Borderline (Disc1) [2013 ...
  • Joe Bonamassa / Tour De Force. Live In London. Shepherds Bush Empire (Disc2 ...
  • Joe Bonamassa / Tour De Force. Live In London. Hammersmith Apollo (Disc3) [ ...
  • Joe Bonamassa / Tour De Force. Live In London. Royal Albert Hall (Disc4) [2 ...
  • (2013) Beth Hart & Joe Bonamassa / Seesaw (Blues-Rock) [MP3 (tracks), 320/C ...
  • Joe Bonamassa / An Acoustic Evening At The Vienna Opera House [2013, Acoust ...
  • (2013) Joe Bonamassa / An Acoustic Evening at The Vienna Opera House (Blues ...
  • (2013) Rock Candy Funk Party / We Want o Groove (Funk, Jazz-Rock, Blues, Fu ...
  • (2011) Don Airey / All Out (Melodic Rock/Hard Rock/Progressive Rock) [MP3, ...
  • (2012) Jon Lord / Concerto For Group And Orchestra (Classic Rock/Classical/ ...
  • (2011) Blues Cousins / KGB Blues (Blues Rock) [FLAC (image+.cue), lossless] ...
  • (2012) The Blues Overdrive / The Blues Overdrive (Blues-Rock) [FLAC (image+ ...
  • (Сборник, 2000-2012) Joe Bonamassa (Blues, hard rock) [FLAC (image+.cue), l ...
  • (2012) Joe Bonamassa / Beacon Theatre: Live From New York (2CD) (Blues-Rock ...
  • (2012, Сборник) VA / Re-Machined A Tribute To Deep Purples Machine Head (Cl ...
  • (2007) Pink Floyd / Greatest Hits [Star Mark] (2 CD) (Progressive Rock, Ps ...
  • Joe Bonamassa / Live from the Royal Albert Hall (2009)
  • (2009, Cборник) Madonna / Greatest Hits [CD1 + CD2] (Pop) [APE (image+.cue) ...
  • (2010) Black Country Communion / Black Country Communion (Hard Rock, blues- ...
  • Информация
    Посетители, находящиеся в группе Гости, не могут оставлять комментарии к данной публикации.