вход на сайт

Имя пользователя :
Пароль :

Восстановление пароля Регистрация
(2012) Gary Clark Jr. / Blak and Blu (Blues, Rock) [FLAC (image+.cue), lossless]
Рейтинг:
(голосов: 1)



[img]{THEME}/images/logopost.png[/img]



Исполнитель: Gary Clark Jr.
Страна: США
Альбом: Blak and Blu
Тип альбома: Студийный
Год выпуска: 2012
Жанр: Blues, Rock
Страна (Издатель, Каталожный номер): США (Warner Bros. Rec., 531981-2)
Аудиокодек: FLAC (*.flac)
Тип рипа: tracks, image+.cue
Битрейт: lossless
Log-файл: Присутствует.
Наличие сканов в содержимом раздачи: Да. (JPG, 600DPI, 52,3MB)
Продолжительность: 01:07:02

Об исполнителе: Gary Clark Jr. (born February 15, 1984) is an American guitarist and actor based in Austin, Texas. Described as a savior of blues, Clarks resume has included sharing the stage with various legends of rock and roll. He has stated that he is "influenced by blues, jazz, soul and country, as well as hip hop". Clarks musical trademarks are his extremely fuzzy guitar sound and smooth vocal style.

Tреклист:
01. Gary Clark Jr. - Aint Messin Round (04:09)
02. Gary Clark Jr. - When My Train Pulls In (07:45)
03. Gary Clark Jr. - Blak and Blu (04:06)
04. Gary Clark Jr. - Bright Lights (05:24)
05. Gary Clark Jr. - Travis County (03:38)
06. Gary Clark Jr. - The Life (05:05)
07. Gary Clark Jr. - Glitter Aint Gold (Jumpin for Nothin) (04:18)
08. Gary Clark Jr. - Numb (05:26)
09. Gary Clark Jr. - Please Come Home (04:16)
10. Gary Clark Jr. - Things Are Changin (03:59)
11. Gary Clark Jr. - Third Stone from the Sun / If You Love Me Like You Say (09:38)
12. Gary Clark Jr. - You Saved Me (06:11)
13. Gary Clark Jr. - Next Door Neighbor Blues (03:01)

Лог создания рипа (EAC log) ▼TextExact Audio Copy V0.99 prebeta 5 from 4. May 2009

Отчёт EAC об извлечении, выполненном 23. октября 2012, 20:41

Gary Clark Jr. / Blak and Blu

Дисковод: PLEXTOR DVDR PX-880SA Adapter: 1 ID: 0

Режим чтения : Достоверность
Использование точного потока : Да
Отключение кэша аудио : Да
Использование указателей C2 : Нет

Коррекция смещения при чтении : 6
Способность читать области Lead-in и Lead-out : Нет
Заполнение пропущенных сэмплов тишиной : Да
Удаление блоков с тишиной в начале и конце : Нет
При вычислениях CRC использовались нулевые сэмплы : Да
Интерфейс : Установленный внешний ASPI-интерфейс

Выходной формат : Пользовательский кодировщик
Выбранный битрейт : 1024 kBit/s
Качество : Высокий
Добавление ID3-тэга : Нет
Утилита сжатия : C:Program FilesExact Audio CopyFLACFLAC.EXE
Дополнительные параметры : -6 -V -T "ARTIST=%a" -T "TITLE=%t" -T "ALBUM=%g" -T "DATE=%y" -T "TRACKNUMBER=%n" -T "GENRE=%m" -T "COMMENT=%e" %s -o %d

TOC извлечённого CD

Трек | Старт | Длительность | Начальный сектор | Конечный сектор
---------------------------------------------------------------------
1 | 0:00.00 | 4:09.31 | 0 | 18705
2 | 4:09.31 | 7:45.72 | 18706 | 53652
3 | 11:55.28 | 4:06.34 | 53653 | 72136
4 | 16:01.62 | 5:24.59 | &n
a1872c4166cc7f6c00e08972150b6b66b0f0d26c(2012) Gary Clark Jr. / Blak and Blu (Blues, Rock) [FLAC (image+.cue), lossless] (2012) Gary Clark Jr. / Blak and Blu (Blues, Rock) [FLAC (image+.cue), lossless] " />

Аплоадер: Админ, дата: 3-11-2012, 14:37, торрент скачан: 359 раз

Понравилась раздача? Посмотрите эти:
  • (1993) Coverdale & Page / Coverdale & Page (EMI Holland)(Hard Rock) [FLAC ( ...
  • (2000) a-ha / Minor Earth | Major Sky (Alternative Rock, Synth-pop ) [FLAC ...
  • (2003) Eagles / The Very Best Of Eagles (Rock) ( 2CD Warner USA) [FLAC (ima ...
  • (2013) VA / Crossroads Guitar Festival Eric Clapton (2CD) (Blues, Blues Roc ...
  • (2011) Jim McCarty / Jim McCarty and Friends (Live Callahans) (Rockin Blues ...
  • (2013) Hadden Sayers / Rolling Soul (Blues-Rock) [FLAC (image+.cue), lossle ...
  • (2013) Devon Allman / Turquoise (Blues-Rock) [FLAC (image+.cue), lossless]
  • (2012) Mike Snowden / Cigar Box Guitar Evil (Blues-Rock) [FLAC (image+.cue) ...
  • (2013) Pinnick Gales Pridgen / Pinnick Gales Pridgen (Hard Rock, Heavy Blue ...
  • (2010) Schiller / Breathless (Electronic) [FLAC (image+.cue), lossless]
  • (2010) БИ-2 / О чём говорят мужчины (Pop-Rock) [FLAC (image + .cue), lossle ...
  • (2011) VA / Bar Jazz (Swing, Vocal Jazz, Trad Jazz) [FLAC (image+.cue), los ...
  • (1997) Jazz Cafe / Simple Pleasures (Jazz, instrumental) [FLAC (image+.сue ...
  • (2012) The Rasmus / The Rasmus (Alternative Rock/Melodic Rock) [FLAC (track ...
  • (2012) The Blues Overdrive / The Blues Overdrive (Blues-Rock) [FLAC (image+ ...
  • (2012) The Rockin Blues Express (feat. John Gumby Goodwin) / The Rockin Blu ...
  • (1995) The Gary Tesca Orchestra / Amor amor - The Julio Iglesias Story (Pop ...
  • (2012) The Rasmus / The Rasmus (Tour Edition) FLAC (tracks+.cue), lossless
  • (2012) Strange Contact / Retro (Synthpop) [FLAC (image+.сue), lossless]
  • (2012) Walter Trout / Blues For The Modern Daze (Blues, Blues Rock) [FLAC ( ...
  • Информация
    Посетители, находящиеся в группе Гости, не могут оставлять комментарии к данной публикации.