вход на сайт

Имя пользователя :
Пароль :

Восстановление пароля Регистрация
(2012) The Blues Overdrive / The Blues Overdrive (Blues-Rock) [FLAC (image+.cue), lossless]
Рейтинг:
(голосов: 1)



[img]{THEME}/images/logopost.png[/img]



Исполнитель: The Blues Overdrive
Страна: Дания
Альбом: The Blues Overdrive
Тип альбома: Студийный
Год выпуска: 2012
Жанр: Blues-Rock
Страна (Издатель, Каталожный номер): Дания (Gateway Music, TBO010312)
Аудиокодек: FLAC (*.flac)
Тип рипа: image+.cue
Битрейт: lossless
Log-файл: Присутствует.
Наличие сканов в содержимом раздачи: Да. (JPG, 600DPI, 25,6MB)
Продолжительность: 00:40:14


Tреклист:
01 ... The Blues Overdrive - Death On the Highway ... 04:42
02 ... The Blues Overdrive - Out in the Country ... 03:40
03 ... The Blues Overdrive - I Was Wrong ... 02:31
04 ... The Blues Overdrive - Ball & Chain ... 05:05
05 ... The Blues Overdrive - Mr. 16 Tons (Blues for Thorup) ... 04:05
06 ... The Blues Overdrive - Too Blind to See ... 03:37
07 ... The Blues Overdrive - I Need Your Lovin ... 02:35
08 ... The Blues Overdrive - Got Myself a Woman ... 03:07
09 ... The Blues Overdrive - Big Fat Woman ... 02:43
10 ... The Blues Overdrive - Done Tryin ... 04:31
11 ... The Blues Overdrive - Feelin Kind of Blue ... 03:33

Лог создания рипа (EAC log) ▼TextExact Audio Copy V0.99 prebeta 5 from 4. May 2009

Отчёт EAC об извлечении, выполненном 14. июля 2012, 18:59

The Blues Overdrive / The Blues Overdrive

Дисковод: PLEXTOR DVDR PX-880SA Adapter: 1 ID: 0

Режим чтения : Достоверность
Использование точного потока : Да
Отключение кэша аудио : Да
Использование указателей C2 : Нет

Коррекция смещения при чтении : 6
Способность читать области Lead-in и Lead-out : Нет
Заполнение пропущенных сэмплов тишиной : Да
Удаление блоков с тишиной в начале и конце : Нет
При вычислениях CRC использовались нулевые сэмплы : Да
Интерфейс : Установленный внешний ASPI-интерфейс

Выходной формат : Пользовательский кодировщик
Выбранный битрейт : 1024 kBit/s
Качество : Высокий
Добавление ID3-тэга : Нет
Утилита сжатия : C:Program FilesExact Audio CopyFLACFLAC.EXE
Дополнительные параметры : -6 -V -T "ARTIST=%a" -T "TITLE=%t" -T "ALBUM=%g" -T "DATE=%y" -T "TRACKNUMBER=%n" -T "GENRE=%m" -T "COMMENT=%e" %s -o %d

TOC извлечённого CD

Трек | Старт | Длительность | Начальный сектор | Конечный сектор
---------------------------------------------------------------------
1 | 0:00.00 | 4:44.15 | 0 | 21314
2 | 4:44.15 | 3:42.05 | 21315 | 37969
3 | 8:26.20 | 2:33.22 | 37970 | 49466
4 | 10:59.42 | 5:07.35 | 49467 | 72526
5 | 16:07.02 | 4:07.08 | 72527 | 91059
6 | 20:14.10 | 3:39.62 | 91060 | 107546
7&nb
96128c91664fe22363f706553320ed75589da004(2012) The Blues Overdrive / The Blues Overdrive (Blues-Rock) [FLAC (image+.cue), lossless] (2012) The Blues Overdrive / The Blues Overdrive (Blues-Rock) [FLAC (image+.cue), lossless] " />

Аплоадер: Админ, дата: 2-09-2012, 16:17, торрент скачан: 359 раз

Понравилась раздача? Посмотрите эти:
  • (1993) Coverdale & Page / Coverdale & Page (EMI Holland)(Hard Rock) [FLAC ( ...
  • (2013) Buddy Guy / Rhythm & Blues (2CD) (Blues) [FLAC (image+.cue), Lossles ...
  • (2013) The Hamburg Blues Band / Friends For A LIVEtime (Blues Rock, Rock) [ ...
  • (2011) Jim McCarty / Jim McCarty and Friends (Live Callahans) (Rockin Blues ...
  • (2013) Hadden Sayers / Rolling Soul (Blues-Rock) [FLAC (image+.cue), lossle ...
  • (2013) Tinsley Ellis / Get It! (Blues, Instrumental) [FLAC (image+.cue), lo ...
  • (2013) Devon Allman / Turquoise (Blues-Rock) [FLAC (image+.cue), lossless]
  • (2012) Mike Snowden / Cigar Box Guitar Evil (Blues-Rock) [FLAC (image+.cue) ...
  • (2013) Pinnick Gales Pridgen / Pinnick Gales Pridgen (Hard Rock, Heavy Blue ...
  • (2010) Gary Moore / Greatest Hits (2CD) (Blues,Blues-Rock) [mp3 320/CBR]
  • (2010) Super 300 Blues Band / Id Rather Drink Muddy Water (Blues) [MP3, 256 ...
  • (2012) Richie Rich & The Chi / Town Blues Band / From The Streets (Blues, E ...
  • (2012) Butch Thompson & Pat Donohue / Vicksburg Blues (Blues) [Mp3 (tracks) ...
  • (2011) VA / Bar Jazz (Swing, Vocal Jazz, Trad Jazz) [FLAC (image+.cue), los ...
  • (2011) Blues Cousins / KGB Blues (Blues Rock) [FLAC (image+.cue), lossless] ...
  • (2011) Chris Rea / Santo Spirito Blues - BoxSet (3CD+2DVD) (Blues Rock) [FL ...
  • (2012) Mark Lanegan Band / Blues Funeral (Alternative Rock/Blues Rock) [FLA ...
  • (1998) Roomful of Blues / There Goes The Neighborhood (Jump / Modern Electr ...
  • (2012) Garou / Rhythm And Blues (Pop Rock, Blues, R&B) [WAVPack (image+.cue ...
  • (2012) Joe Bonamassa / Beacon Theatre: Live From New York (2CD) (Blues-Rock ...
  • (2012) Gary Clark Jr. / Blak and Blu (Blues, Rock) [FLAC (image+.cue), loss ...
  • (2012) The Rockin Blues Express (feat. John Gumby Goodwin) / The Rockin Blu ...
  • (1998) Шанхай и Маргулис / 7+1 (Blues Rock) [FLAC (tracks+.cue), lossless]
  • (2012) ЛихоЛесье / Blues 2012 (Rock, Blues) [MP3, 320/CBR]
  • (2012) Walter Trout / Blues For The Modern Daze (Blues, Blues Rock) [FLAC ( ...
  • Информация
    Посетители, находящиеся в группе Гости, не могут оставлять комментарии к данной публикации.