вход на сайт

Имя пользователя :
Пароль :

Восстановление пароля Регистрация
(2012) Larry Miller / On The Edge (Blues Rock) [FLAC (tracks+.cue), Lossless]
Рейтинг:
(голосов: 1)



[img]{THEME}/images/logopost.png[/img]




Исполнитель:Larry Miller
Альбом:On The Edge
Тип альбома:Студийный
Год выпуска:2012
Жанр:Blues Rock
Страна (Издатель диска): Великобритания, Big Guitar Records / LMILCD07
Аудиокодек: FLAC (*.flac)
Тип рипа: tracks+.cue
Битрейт: lossless
Log-файл: Присутствует
Продолжительность: 00:53:04



Wikipedia |YouTube|Facebook

Tреклист:
01. When Trouble Comes (4:40)
02. The Girl That Got Away (6:27)
03. Road Runner (4:17)
04. The Wrong Name (7:39)
05. Reel Me In (5:33)
06. We Should Be One (7:22)
07. The Devils In The Detail (6:23)
08. When The Bluesman Walked The Earth (6:33)
09. The Wrong Name ( Part Two ) (4:11)

Лог создания рипа ▼Text
Exact Audio Copy V1.0 beta 3 from 29. August 2011

EAC extraction logfile from 6. June 2012, 11:58

Larry Miller / On The Edge [LMIL07]

Used drive : HL-DT-STDVDRAM GH22NS90 Adapter: 4 ID: 0

Read mode : Secure
Utilize accurate stream : Yes
Defeat audio cache : Yes
Make use of C2 pointers : No

Read offset correction : 6
Overread into Lead-In and Lead-Out : No
Fill up missing offset samples with silence : Yes
Delete leading and trailing silent blocks : No
Null samples used in CRC calculations : Yes
Used interface : Installed external ASPI interface

Used output format : User Defined Encoder
Selected bitrate : 1024 kBit/s
Quality : High
Add ID3 tag : No
Command line compressor : D:Program Files (x86)Exact Audio Copywavpack.exe
Additional command line options : -hlmx2 %source% %dest%

TOC of the extracted CD

Track | Start | Length | Start sector | End sector
---------------------------------------------------------
1 | 0:00.00 | 4:40.02 | 0 | 21001
2 | 4:40.02 | 6:27.02 | 21002 | 50028
3 | 11:07.04 | 4:17.09 | 50029 | 69312
4 | 15:24.13 | 7:38.50 | 69313 | 103712
5 | 23:02.63 | 5:32.48 | 103713 | 128660
6 | 28:35.36 | 7:21.61 | 128661 | 161796
7 | 35:57.22 | 6:22.41 | 161797 | 190487
8 | 42:19.63 | 6:32.50 | 190488 | 219937
9 | 48:52.38 | 4:11.26 | 219938 | 238788

Range status and errors

Selected range

Filename D:eacLarry MillerLarry Miller - On The Edge [LMIL07].wav

Peak level 100.0 %
Extraction speed 1.8 X
Range quality 99.9 %
Test CRC 9D3C5613
Copy CRC 9D3C5613
Copy OK

No errors occurred

AccurateRip summary
&nbs
eb39edfb06037f979123f993c35cba87ef143463(2012) Larry Miller / On The Edge (Blues Rock) [FLAC (tracks+.cue), Lossless] (2012) Larry Miller / On The Edge (Blues Rock) [FLAC (tracks+.cue), Lossless] " />

Аплоадер: Админ, дата: 18-06-2012, 15:24, торрент скачан: 359 раз

Понравилась раздача? Посмотрите эти:
  • (2013) Yes / Close To The Edge (1972, remixed, CD+Blu-ray) (Progressive Roc ...
  • (2009) ONE REPUBLIC / Waking Up (Pop-Rock/Alternative) [FLAC (tracks+.cue) ...
  • (2010)Scorpions/Sting In The Tail [FLAC (tracks+cue), lossless]
  • (1989) Kaoma / Lambada (lambada / latin / ethnic) [FLAC (image+.cue), lossl ...
  • (Дискография) GORILLAZ (Trip-Hop) [FLAC (tracks + .cue) lossless]
  • (2010) Ассаи / Лифт (Rap) [FLAC(image+.cue), lossless]
  • (1968) Ten Years After / Undead (Rock / Blues / Blues Rock) [Flac (tracks+. ...
  • (2010) Ravenna / Debrief (Alt. Rock / Christian Rock / Indie) [FLAC (tracks ...
  • (2011) B.B. King / Icon (Blues) [FLAC (tracks+.cue), lossless]
  • (2012) Linkin Park / Burn It Down (Alternative Rock) (Single) [FLAC (image+ ...
  • (2012) Kreator / Phantom Antichrist (Thrash Metal) [FLAC (image+.cue), loss ...
  • (2006) The Rasmus / Shot (Single) (Alternative Rock) [FLAC (tracks+.cue), l ...
  • (2010) Sade / Soldier Of Love ( jazz, soul, blues) [FLAC (tracks) lossless] ...
  • (2011) Linkin Park / Iridescent (Alternative Rock) [FLAC(image+.cue), lossl ...
  • (2011) Evanescence / Evanescence (Alternative Rock) [FLAC (tracks+.cue), lo ...
  • (2012) The Cranberries / Roses (Alternative Rock / Pop-Rock) [FLAC (tracks+ ...
  • (2012) Fox / 2012 (Melodic Hard Rock) [FLAC (image +.cue), lossless]
  • (2012) Оргия Праведников / Шитрок (Rock/Progressive Rock) [FLAC (tracks+cue ...
  • (2012) KoRn feat. Skrillex / Chaos Lives In Everything (UK Promo) (Nu-metal ...
  • (2011) Ink Stained Promises / Relations. (Metalcore, Hardcore) [FLAC (track ...
  • Информация
    Посетители, находящиеся в группе Гости, не могут оставлять комментарии к данной публикации.